<?xml version="1.0" standalone="no"?>
<!DOCTYPE svg PUBLIC "-//W3C//DTD SVG 1.1//EN" "http://www.w3.org/Graphics/SVG/1.1/DTD/svg11.dtd" >
<svg xmlns="http://www.w3.org/2000/svg" xmlns:xlink="http://www.w3.org/1999/xlink" version="1.1">
<metadata>
Created by FontForge 20170731 at Wed Sep 20 15:31:01 2023
 By Aleksey,,,
Copyright (c) 2017 by Oliver Jeschke. All rights reserved.
</metadata>
<defs>
<font id="Sequel100Wide-85" horiz-adv-x="1660" >
  <font-face 
    font-family="Sequel 100 Wide 85"
    font-weight="324"
    font-stretch="expanded"
    units-per-em="2048"
    panose-1="2 11 6 3 5 0 0 2 0 4"
    ascent="1638"
    descent="-410"
    x-height="1106"
    cap-height="1462"
    bbox="-579 -899 5058 2189"
    underline-thickness="102"
    underline-position="-307"
    unicode-range="U+000D-FB02"
  />
<missing-glyph horiz-adv-x="1398" 
d="M1322 2189v-3088h-1247v3088h1247zM234 2056v-2820h928v2820h-928zM589 801h-273q20 311 375 311q162 0 263.5 -72.5t101.5 -205.5q0 -43 -11.5 -76t-35 -56.5t-44.5 -38t-55 -32.5q-63 -32 -84.5 -52.5t-21.5 -52.5v-6h-242v33q0 76 32 118.5t118 94.5q34 20 49.5 39
t15.5 45q0 29 -22.5 47t-65.5 18q-44 0 -71.5 -29.5t-28.5 -84.5zM540 190v252h286v-252h-286z" />
    <glyph glyph-name="fi" unicode="fi" horiz-adv-x="1632" 
d="M860 1239q-122 0 -161.5 -27.5t-27.5 -105.5h285v-267h-285v-839h-463v839h-182v267h182v77q0 105 36 176t110 110.5t171 56t235 16.5q56 0 104.5 -3t79.5 -6.5t37 -3.5v-296q-81 6 -121 6zM1072 1237v254h471v-254h-471zM1076 0v1106h463v-1106h-463z" />
    <glyph glyph-name="fl" unicode="fl" horiz-adv-x="1662" 
d="M860 1239q-122 0 -161.5 -27.5t-27.5 -105.5h285v-267h-285v-839h-463v839h-182v267h182v77q0 105 36 176t110 110.5t171 56t235 16.5q56 0 104.5 -3t79.5 -6.5t37 -3.5v-296q-81 6 -121 6zM1107 0v1483h463v-1483h-463z" />
    <glyph glyph-name="f_f" unicode="ff" horiz-adv-x="1912" 
d="M1759 1239q-122 0 -161.5 -27.5t-27.5 -105.5h285v-267h-285v-839h-463v839h-436v-839h-463v839h-182v267h182v77q0 105 36 176t110 110.5t171 56t235 16.5q56 0 104.5 -3t79.5 -6.5t37 -3.5v-296q-81 6 -121 6q-122 0 -161.5 -27.5t-27.5 -105.5h436v77q0 105 36 176
t110 110.5t171 56t235 16.5q56 0 104.5 -3t79.5 -6.5t37 -3.5v-296q-81 6 -121 6z" />
    <glyph glyph-name="f_f_i" unicode="ffi" horiz-adv-x="2531" 
d="M1107 1183q0 105 36 176t110 110.5t171 56t235 16.5q56 0 104.5 -3t79.5 -6.5t37 -3.5v-296q-81 6 -121 6q-123 0 -162.5 -27.5t-26.5 -105.5h285v-267h-285v-839h-463v839h-436v-839h-463v839h-182v267h182v77q0 105 36 176t110 110.5t171 56t235 16.5q56 0 104.5 -3
t79.5 -6.5t37 -3.5v-296q-81 6 -121 6q-123 0 -162.5 -27.5t-26.5 -105.5h436v77zM1971 1491h471v-254h-471v254zM1975 0v1106h463v-1106h-463z" />
    <glyph glyph-name=".notdef" horiz-adv-x="1398" 
d="M1322 2189v-3088h-1247v3088h1247zM234 2056v-2820h928v2820h-928zM589 801h-273q20 311 375 311q162 0 263.5 -72.5t101.5 -205.5q0 -43 -11.5 -76t-35 -56.5t-44.5 -38t-55 -32.5q-63 -32 -84.5 -52.5t-21.5 -52.5v-6h-242v33q0 76 32 118.5t118 94.5q34 20 49.5 39
t15.5 45q0 29 -22.5 47t-65.5 18q-44 0 -71.5 -29.5t-28.5 -84.5zM540 190v252h286v-252h-286z" />
    <glyph glyph-name=".null" horiz-adv-x="0" 
 />
    <glyph glyph-name="nonmarkingreturn" horiz-adv-x="682" 
 />
    <glyph glyph-name="CR" unicode="&#xd;" horiz-adv-x="276" 
 />
    <glyph glyph-name="space" unicode=" " horiz-adv-x="700" 
 />
    <glyph glyph-name="exclam" unicode="!" horiz-adv-x="747" 
d="M569 518h-391l-70 704v240h531v-240zM131 0v406h485v-406h-485z" />
    <glyph glyph-name="quotedbl" unicode="&#x22;" horiz-adv-x="1067" 
d="M431 749h-361v713h361v-713zM997 749h-361v713h361v-713z" />
    <glyph glyph-name="numbersign" unicode="#" horiz-adv-x="1611" 
d="M1519 842h-250l-61 -252h257l-59 -220h-252l-91 -370h-290l90 370h-283l-91 -370h-291l91 370h-253l57 220h250l61 252h-256l55 223h256l91 368h291l-91 -368h284l90 368h289l-89 -368h252zM917 590l61 252h-283l-62 -252h284z" />
    <glyph glyph-name="dollar" unicode="$" horiz-adv-x="1742" 
d="M1688 446q0 -109 -35.5 -189.5t-98 -132.5t-162 -84.5t-213.5 -46t-265 -15.5v-217h-125v217q-144 3 -253 17.5t-205.5 49.5t-159 91t-100.5 143.5t-42 205.5h512q11 -99 72.5 -141.5t175.5 -50.5v269l-252 32q-236 30 -355.5 125.5t-119.5 287.5q0 99 35.5 175.5
t98 126.5t156 82.5t199.5 47t238 17.5v169h125v-170q107 -3 196.5 -13.5t172 -32.5t145 -57.5t110 -84.5t73 -118t28.5 -154h-510q-18 134 -215 153v-238l305 -36q234 -26 351.5 -128.5t117.5 -299.5zM735 930l54 -6v226q-213 -10 -213 -114q0 -49 38.5 -73t120.5 -33z
M914 292q125 4 184.5 34.5t59.5 88.5t-46.5 85t-140.5 39l-57 7v-254z" />
    <glyph glyph-name="percent" unicode="%" horiz-adv-x="2371" 
d="M530 1462q243 0 357.5 -101t114.5 -319q0 -217 -114.5 -318t-357.5 -101t-357.5 101t-114.5 318q0 218 114.5 319t357.5 101zM1521 1434h263l-934 -1434h-262zM530 846q74 0 113 43.5t39 152.5t-39.5 153t-112.5 44q-74 0 -113.5 -44t-39.5 -153t39.5 -152.5t113.5 -43.5
zM1842 811q243 0 357.5 -101t114.5 -319t-114.5 -319t-357.5 -101t-357.5 101t-114.5 319t114.5 319t357.5 101zM1842 195q74 0 113 43.5t39 152.5t-39 152.5t-113 43.5t-113 -43.5t-39 -152.5t39 -152.5t113 -43.5z" />
    <glyph glyph-name="ampersand" unicode="&#x26;" horiz-adv-x="2039" 
d="M2047 0h-574l-101 83q-238 -112 -521 -112q-189 0 -330.5 23.5t-246 75t-158 138.5t-53.5 208q0 104 38.5 175t108 115.5t189.5 86.5l79 28l-13 12q-57 47 -87 76t-56.5 65.5t-36.5 75t-10 89.5q0 181 162 268.5t492 87.5q333 0 496 -87.5t163 -268.5q0 -60 -17.5 -105.5
t-55 -79t-79 -56.5t-106.5 -49l-208 -84l236 -195q48 99 48 204h430q0 -266 -164 -464zM864 978l16 -13l87 31q75 27 110 54t35 70q0 113 -183 113q-95 0 -137.5 -31.5t-42.5 -81.5q0 -31 25.5 -60t89.5 -82zM851 262q130 0 243 51l-357 295q-166 -70 -166 -181
q0 -73 72.5 -119t207.5 -46z" />
    <glyph glyph-name="quotesingle" unicode="'" horiz-adv-x="501" 
d="M431 749h-361v713h361v-713z" />
    <glyph glyph-name="parenleft" unicode="(" horiz-adv-x="907" 
d="M526 582q0 -136 26 -270.5t64.5 -237.5t87 -193t89 -145.5t74.5 -87.5h-409q-10 11 -41.5 43t-59.5 61t-67.5 79.5t-72.5 101t-67 123t-57.5 148.5t-38.5 174.5t-15 203.5t15 203.5t38.5 174.5t57.5 148.5t67 123t72.5 101t67.5 79.5t59.5 61t41.5 43h409
q-34 -32 -74.5 -87.5t-89 -145.5t-87 -193t-64.5 -237.5t-26 -270.5z" />
    <glyph glyph-name="parenright" unicode=")" horiz-adv-x="899" 
d="M380 582q0 136 -26 270.5t-64.5 237.5t-87 193t-89 145.5t-74.5 87.5h409q10 -11 41.5 -43t59.5 -61t67.5 -79.5t72.5 -101t67 -123t57.5 -148.5t38.5 -174.5t15 -203.5t-15 -203.5t-38.5 -174.5t-57.5 -148.5t-67 -123t-72.5 -101t-67.5 -79.5t-59.5 -61t-41.5 -43h-409
q34 32 74.5 87.5t89 145.5t87 193t64.5 237.5t26 270.5z" />
    <glyph glyph-name="asterisk" unicode="*" horiz-adv-x="1077" 
d="M1019 1157l-275 -173l275 -169l-143 -205l-212 163l4 -263h-261l4 263l-213 -163l-140 205l273 169l-273 173l140 202l213 -158l-4 261h261l-4 -261l212 158z" />
    <glyph glyph-name="plus" unicode="+" horiz-adv-x="1331" 
d="M1206 813v-291h-387v-397h-308v397h-387v291h387v393h308v-393h387z" />
    <glyph glyph-name="comma" unicode="," horiz-adv-x="720" 
d="M613 430v-321q0 -281 -121 -401.5t-384 -120.5v168q75 0 124 36t68 89t19 120h-211v430h505z" />
    <glyph glyph-name="hyphen" unicode="-" horiz-adv-x="899" 
d="M838 426h-779v332h779v-332z" />
    <glyph glyph-name="period" unicode="." horiz-adv-x="720" 
d="M108 0v430h505v-430h-505z" />
    <glyph glyph-name="slash" unicode="/" horiz-adv-x="1058" 
d="M666 1462h354l-643 -1462h-354z" />
    <glyph glyph-name="zero" unicode="0" horiz-adv-x="1902" 
d="M951 1480q889 0 889 -763t-889 -763q-888 0 -888 763t888 763zM951 305q205 0 295.5 103.5t90.5 308.5t-90.5 308t-295.5 103t-295.5 -103t-90.5 -308t90.5 -308.5t295.5 -103.5z" />
    <glyph glyph-name="one" unicode="1" horiz-adv-x="1067" 
d="M960 1434v-1434h-477v841h-440v316h117q95 0 164.5 19.5t114.5 58t72 86t45 113.5h404z" />
    <glyph glyph-name="two" unicode="2" horiz-adv-x="1771" 
d="M824 453q-89 -21 -152 -53t-83 -62h1104v-338h-1646v44q0 78 14 147.5t36.5 125t58 105.5t72 87.5t85.5 71.5t91.5 57.5t96.5 46.5t94 37t90 30l263 84q120 39 170 76t50 103q0 131 -273 131q-132 0 -212.5 -51.5t-90.5 -163.5h-519q18 289 215.5 419t586.5 130
q160 0 283.5 -13.5t227 -45t170 -82.5t103 -128t36.5 -179q0 -87 -24 -157t-67.5 -122t-110.5 -93t-145 -69.5t-180 -52.5z" />
    <glyph glyph-name="three" unicode="3" horiz-adv-x="1769" 
d="M1438 745q139 -32 208 -110t69 -223q0 -167 -81 -265.5t-267 -145.5t-505 -47q-303 0 -481.5 54t-259 164.5t-90.5 297.5h512q9 -95 87.5 -138.5t231.5 -43.5q102 0 171 12t112 45.5t43 88.5q0 83 -64 117.5t-194 34.5h-284v296h292q236 0 236 143q0 73 -81.5 103.5
t-230.5 30.5q-277 0 -295 -167h-485q16 261 199.5 374.5t580.5 113.5q172 0 300 -13.5t227 -44t160 -80.5t92 -121.5t31 -169.5q0 -251 -234 -293v-13z" />
    <glyph glyph-name="four" unicode="4" horiz-adv-x="1734" 
d="M983 282h-949v351l839 801h571v-840h246v-312h-246v-282h-461v282zM983 594v469h-12l-479 -457v-12h491z" />
    <glyph glyph-name="five" unicode="5" horiz-adv-x="1769" 
d="M1608 1434v-315h-1053l-10 -196h12q52 23 93.5 37.5t128.5 30t185 15.5q398 0 573 -119t175 -397q0 -190 -80.5 -306t-263.5 -173t-489 -57q-224 0 -380 29.5t-251 91.5t-139.5 147.5t-51.5 205.5h521q11 -69 82 -104.5t219 -35.5q163 0 239 45.5t76 149.5t-75 149
t-234 45q-177 0 -289 -49h-491l48 806h1455z" />
    <glyph glyph-name="six" unicode="6" horiz-adv-x="1804" 
d="M987 932q387 0 573.5 -112t186.5 -354q0 -253 -198.5 -382.5t-615.5 -129.5q-461 0 -665.5 177t-204.5 583q0 384 207 575t655 191q175 0 314 -27.5t227.5 -72t149 -106t87.5 -123.5t34 -131h-513q-12 73 -88 109.5t-200 36.5q-86 0 -149 -15.5t-114.5 -52t-81 -103.5
t-36.5 -164h13q68 46 189 73.5t230 27.5zM916 627q-324 0 -324 -176q0 -183 324 -183q153 0 233 43t80 141q0 94 -79.5 134.5t-233.5 40.5z" />
    <glyph glyph-name="seven" unicode="7" horiz-adv-x="1677" 
d="M26 1434h1607v-183q0 -94 -25 -160t-79 -136q-42 -57 -108 -136t-115.5 -136.5t-107 -140t-97 -158t-69.5 -176t-39 -208.5h-631q7 86 34 172.5t66 162.5t94.5 153.5t112.5 143t126.5 135.5t131 126.5t131.5 119.5q11 9 16.5 14.5t14.5 13.5t16 14v12h-1079v367z" />
    <glyph glyph-name="eight" unicode="8" horiz-adv-x="1839" 
d="M919 1480q430 0 627.5 -98.5t197.5 -330.5q0 -227 -245 -293v-13q140 -32 208 -112t68 -234q0 -236 -201.5 -340.5t-654.5 -104.5t-654.5 104.5t-201.5 340.5q0 154 68 234t208 112v13q-245 66 -245 293q0 232 197.5 330.5t627.5 98.5zM919 1160q-166 0 -247 -31.5
t-81 -110.5q0 -77 81.5 -109.5t246.5 -32.5t246.5 32.5t81.5 109.5q0 79 -81 110.5t-247 31.5zM919 273q170 0 250 34.5t80 121.5q0 88 -81.5 123t-248.5 35t-248.5 -35t-81.5 -123q0 -87 80 -121.5t250 -34.5z" />
    <glyph glyph-name="nine" unicode="9" horiz-adv-x="1783" 
d="M797 501q-387 0 -573.5 112t-186.5 354q0 253 198.5 383t615.5 130q461 0 666 -177.5t205 -583.5q0 -384 -207.5 -574.5t-655.5 -190.5q-175 0 -314 27.5t-227.5 72t-149 105.5t-87.5 123t-34 131h513q12 -73 88 -109t201 -36q86 0 149 15.5t114.5 52t80.5 103.5t36 164
h-12q-68 -46 -190 -74t-230 -28zM869 806q324 0 324 176q0 184 -324 184q-153 0 -233.5 -43.5t-80.5 -140.5q0 -94 80 -135t234 -41z" />
    <glyph glyph-name="colon" unicode=":" horiz-adv-x="698" 
d="M108 700v406h482v-406h-482zM108 0v406h482v-406h-482z" />
    <glyph glyph-name="semicolon" unicode=";" horiz-adv-x="698" 
d="M108 700v406h482v-406h-482zM590 406v-297q0 -280 -117.5 -401t-364.5 -121v168q94 0 141 70.5t47 174.5h-188v406h482z" />
    <glyph glyph-name="less" unicode="&#x3c;" horiz-adv-x="1327" 
d="M124 779l1078 433v-302l-628 -244v-13l628 -244v-303l-1078 434v239z" />
    <glyph glyph-name="equal" unicode="=" horiz-adv-x="1331" 
d="M1206 1038v-289h-1082v289h1082zM1206 582v-288h-1082v288h1082z" />
    <glyph glyph-name="greater" unicode="&#x3e;" horiz-adv-x="1331" 
d="M1206 779v-239l-1082 -434v303l630 244v13l-630 244v302z" />
    <glyph glyph-name="question" unicode="?" horiz-adv-x="1605" 
d="M532 975h-491q3 122 41.5 212.5t103.5 149t163.5 94.5t210.5 50t257 14q180 0 314 -22t233 -70t149.5 -128.5t50.5 -194.5q0 -69 -18.5 -123t-56 -94t-81.5 -68t-108 -57l-116 -52q-47 -21 -78 -41.5t-44.5 -39.5t-18.5 -31.5t-6 -28.5l-2 -27h-459v48q0 119 46.5 185
t164.5 121l146 69q63 28 90.5 54t27.5 62q0 111 -234 111q-132 0 -206 -43.5t-79 -149.5zM563 0v406h485v-406h-485z" />
    <glyph glyph-name="at" unicode="@" horiz-adv-x="2158" 
d="M1290 1007h280l-126 -636q-6 -36 5 -52t47 -16q49 0 93.5 11.5t88.5 41.5t75.5 76.5t51.5 121t20 170.5q0 271 -198.5 432t-528.5 161q-159 0 -300.5 -61.5t-243.5 -167.5t-161.5 -256t-59.5 -320q0 -318 192.5 -505t531.5 -187q156 0 281 36.5t249 116.5h315
q-117 -163 -343 -269.5t-510 -106.5q-224 0 -409 67.5t-311.5 189t-196 293t-69.5 375.5q0 216 81.5 406t221.5 324.5t332.5 212t407.5 77.5q167 0 320 -38.5t274 -109.5t210.5 -166t137.5 -214t48 -249q0 -138 -37.5 -251.5t-100 -189t-146.5 -127.5t-174 -75t-186 -23
q-216 0 -250 116h-13q-107 -116 -296 -116q-161 0 -255.5 97.5t-94.5 266.5q0 121 44 239t123 198q65 65 139 98t174 32q88 -1 149 -35t85 -94h12zM1080 823q-99 0 -165 -89q-86 -112 -86 -261q0 -83 39.5 -125t110.5 -42q100 0 165 88q86 112 86 261q0 84 -39.5 126
t-110.5 42z" />
    <glyph glyph-name="A" unicode="A" horiz-adv-x="1961" 
d="M1455 0l-101 229h-746l-99 -229h-516l679 1462h623l674 -1462h-514zM756 569h450l-219 501h-12z" />
    <glyph glyph-name="B" unicode="B" horiz-adv-x="1875" 
d="M1552 784q58 -14 102 -38t81 -64.5t56.5 -104t19.5 -148.5q0 -215 -121 -322t-394 -107h-1188v1462h1150q500 0 500 -379q0 -226 -206 -286v-13zM1108 891q70 0 104 28.5t34 89.5t-34 90t-104 29h-529v-237h529zM1137 331q84 0 120.5 32.5t36.5 102.5t-36 102.5
t-121 32.5h-558v-270h558z" />
    <glyph glyph-name="C" unicode="C" horiz-adv-x="1986" 
d="M1366 892q-2 32 -13.5 62.5t-38.5 63t-66 57t-103 40t-144 15.5q-205 0 -312.5 -105.5t-107.5 -293.5t107.5 -293t312.5 -105q344 0 361 268h562q-7 -314 -250 -481.5t-673 -167.5q-215 0 -386 47.5t-295 141.5t-190.5 244t-66.5 346t66.5 346t190.5 244t295 141.5
t386 47.5q426 0 669 -162.5t250 -455.5h-554z" />
    <glyph glyph-name="D" unicode="D" horiz-adv-x="1898" 
d="M1006 1462q207 0 358 -39.5t258 -125.5t160 -227t53 -339t-53 -339t-160 -227t-258 -125.5t-358 -39.5h-898v1462h898zM910 1091h-331v-720h331q205 0 306 84.5t101 275.5t-101 275.5t-306 84.5z" />
    <glyph glyph-name="E" unicode="E" horiz-adv-x="1679" 
d="M579 1111v-206h958v-323h-958v-233h1022v-349h-1493v1462h1472v-351h-1001z" />
    <glyph glyph-name="F" unicode="F" horiz-adv-x="1648" 
d="M1584 1095h-1005v-261h958v-345h-958v-489h-471v1462h1476v-367z" />
    <glyph glyph-name="G" unicode="G" horiz-adv-x="2031" 
d="M1935 816v-816h-333v158q-199 -206 -565 -206q-228 0 -406.5 47t-306 142t-194.5 244t-67 346q0 196 67 345.5t192.5 244t301 142t397.5 47.5q431 0 661.5 -150t246.5 -406h-553q-54 176 -355 176q-219 0 -329.5 -104.5t-110.5 -294.5q0 -201 112.5 -307t343.5 -106
q99 0 176.5 23t117.5 56t60 63.5t20 52.5h-339v303h863z" />
    <glyph glyph-name="H" unicode="H" horiz-adv-x="1906" 
d="M1328 1462h471v-1462h-471v562l-749 -2v-560h-471v1462h471v-531h749v531z" />
    <glyph glyph-name="I" unicode="I" horiz-adv-x="686" 
d="M579 0h-471v1462h471v-1462z" />
    <glyph glyph-name="J" unicode="J" horiz-adv-x="1736" 
d="M1630 1462v-819q0 -162 -38 -282.5t-105 -197.5t-169.5 -124.5t-219 -66t-266.5 -18.5q-151 0 -266.5 18.5t-216.5 65.5t-166 124.5t-102 198t-37 282.5v94h471v-101q0 -165 83 -233t234 -68q73 0 129.5 14.5t102.5 47.5t70.5 93.5t24.5 145.5v826h471z" />
    <glyph glyph-name="K" unicode="K" horiz-adv-x="1878" 
d="M1207 945l676 -945h-570l-446 644l-288 -255v-389h-471v1462h471v-586l631 586h578z" />
    <glyph glyph-name="L" unicode="L" horiz-adv-x="1634" 
d="M1578 0h-1470v1462h471v-1093h999v-369z" />
    <glyph glyph-name="M" unicode="M" horiz-adv-x="2289" 
d="M2183 1462v-1462h-471v1018h-13l-376 -1018h-372l-383 1033h-12v-1033h-448v1462h744l280 -854h13l276 854h762z" />
    <glyph glyph-name="N" unicode="N" horiz-adv-x="1906" 
d="M1350 1462h449v-1462h-541l-690 900h-12v-900h-448v1462h556l674 -880h12v880z" />
    <glyph glyph-name="O" unicode="O" horiz-adv-x="2050" 
d="M1025 1510q224 0 400 -47.5t302 -142t193 -243.5t67 -346t-67 -346t-193 -243.5t-302 -142t-400 -47.5t-400 47.5t-302 142t-193 243.5t-67 346t67 346t193 243.5t302 142t400 47.5zM1025 333q222 0 333 104t111 294t-111 294.5t-333 104.5t-333 -104.5t-111 -294.5
t111 -294t333 -104z" />
    <glyph glyph-name="P" unicode="P" horiz-adv-x="1806" 
d="M1190 1462q307 0 441.5 -121.5t134.5 -374.5t-134.5 -374t-441.5 -121h-611v-471h-471v1462h1082zM1075 804q92 0 133 36.5t41 112.5t-41 113t-133 37h-496v-299h496z" />
    <glyph glyph-name="Q" unicode="Q" horiz-adv-x="2050" 
d="M1987 731q0 -480 -389 -669l100 -167l-282 -116l-116 193q-121 -20 -275 -20q-224 0 -400 47.5t-302 142t-193 243.5t-67 346t67 346t193 243.5t302 142t400 47.5t400 -47.5t302 -142t193 -243.5t67 -346zM1251 643l117 -196q101 101 101 284q0 190 -111 294.5
t-333 104.5t-333 -104.5t-111 -294.5t111 -294t333 -104q21 0 59 2l-115 191z" />
    <glyph glyph-name="R" unicode="R" horiz-adv-x="1863" 
d="M1487 554l351 -554h-536l-281 471h-442v-471h-471v1462h1116q305 0 440.5 -119.5t135.5 -360.5q0 -185 -80.5 -279t-232.5 -132v-17zM1113 804q85 0 123.5 35t38.5 106t-38 106t-124 35h-534v-282h534z" />
    <glyph glyph-name="S" unicode="S" horiz-adv-x="1832" 
d="M1188 1024q-7 88 -87.5 126t-227.5 38q-267 0 -267 -121q0 -52 41 -77.5t127 -34.5l510 -57q247 -28 370.5 -136t123.5 -316q0 -86 -21 -155.5t-58.5 -120.5t-97 -89t-130 -62.5t-164 -39.5t-192 -21t-221.5 -6q-165 0 -288.5 13t-233.5 48.5t-181 95t-114 154t-48 224.5
h541q4 -51 22 -87.5t46.5 -59t72.5 -35.5t91 -17.5t111 -4.5q158 0 232 32t74 98q0 61 -50 90.5t-147 41.5l-457 56q-248 30 -374 131.5t-126 305.5q0 109 41 191.5t111.5 135.5t176.5 86t225.5 46t269.5 13q149 0 267.5 -13t225.5 -46.5t179.5 -87.5t116.5 -139.5
t49 -199.5h-539z" />
    <glyph glyph-name="T" unicode="T" 
d="M1620 1462v-373h-554v-1089h-471v1089h-553v373h1578z" />
    <glyph glyph-name="U" unicode="U" horiz-adv-x="1896" 
d="M1317 1462h471v-827q0 -133 -26 -237.5t-78.5 -179t-123.5 -126.5t-168 -82t-204 -43t-240 -13t-240 13t-204 43t-168 82t-123.5 126.5t-78.5 179t-26 237.5v827h471v-826q0 -71 17 -123.5t47.5 -86.5t77.5 -55t101.5 -29.5t125.5 -8.5t125.5 8.5t101.5 29.5t77.5 55
t47.5 86.5t17 123.5v826z" />
    <glyph glyph-name="V" unicode="V" horiz-adv-x="1841" 
d="M533 1462l381 -949h13l381 949h549l-660 -1462h-553l-659 1462h548z" />
    <glyph glyph-name="W" unicode="W" horiz-adv-x="2443" 
d="M2023 0h-579l-215 896h-12l-216 -896h-589l-422 1462h520l219 -912h12l220 912h523l219 -912h12l221 912h516z" />
    <glyph glyph-name="X" unicode="X" horiz-adv-x="1861" 
d="M1231 775l644 -775h-606l-338 447l-338 -447h-606l644 775l-564 687h591l275 -389l271 389h592z" />
    <glyph glyph-name="Y" unicode="Y" horiz-adv-x="1820" 
d="M1841 1462l-693 -974v-488h-475v488l-692 974h557l373 -573l372 573h558z" />
    <glyph glyph-name="Z" unicode="Z" horiz-adv-x="1710" 
d="M1634 1089l-822 -699h822v-390h-1574v373l820 700h-772v389h1526v-373z" />
    <glyph glyph-name="bracketleft" unicode="[" horiz-adv-x="919" 
d="M557 1231v-1299h304v-284h-753v1868h753v-285h-304z" />
    <glyph glyph-name="backslash" unicode="\" horiz-adv-x="1075" 
d="M393 1462l644 -1462h-355l-643 1462h354z" />
    <glyph glyph-name="bracketright" unicode="]" horiz-adv-x="929" 
d="M373 1231h-304v285h754v-1868h-754v284h304v1299z" />
    <glyph glyph-name="asciicircum" unicode="^" horiz-adv-x="1247" 
d="M787 1433l405 -710h-325l-236 438h-12l-236 -438h-325l405 710h324z" />
    <glyph glyph-name="underscore" unicode="_" horiz-adv-x="1527" 
d="M1532 -215v-123h-1536v123h1536z" />
    <glyph glyph-name="grave" unicode="`" horiz-adv-x="1001" 
d="M108 1533h622l164 -303h-395z" />
    <glyph glyph-name="a" unicode="a" horiz-adv-x="1597" 
d="M1509 178q0 -127 32 -166v-12h-454q-32 32 -32 109v41q-79 -96 -215.5 -146t-304.5 -50q-74 0 -142.5 12.5t-131.5 41t-109.5 70.5t-74 104.5t-27.5 138.5q0 92 26 158t77.5 107t118 62.5t157.5 30.5l483 46q62 6 89 22t27 50q0 78 -204 78q-85 0 -142 -25t-63 -77h-488
q17 379 688 379q128 0 227.5 -9t189 -33t147.5 -63.5t92 -102t34 -146.5v-620zM1047 479v36q-26 -17 -113 -30l-268 -43q-67 -11 -101 -38t-34 -79q0 -104 166 -104q58 0 116 14.5t112 43.5t88 81t34 119z" />
    <glyph glyph-name="b" unicode="b" horiz-adv-x="1679" 
d="M569 986q161 149 418 149q296 0 466.5 -153t170.5 -437t-170.5 -437.5t-466.5 -153.5q-270 0 -427 165h-12v-119h-454v1483h463v-497h12zM847 281q148 0 222 68.5t74 195.5t-74 195t-222 68q-151 0 -228 -70t-77 -193t77 -193.5t228 -70.5z" />
    <glyph glyph-name="c" unicode="c" horiz-adv-x="1658" 
d="M820 281q138 0 202 45.5t74 110.5h508q-9 -88 -39 -159t-89.5 -132.5t-146.5 -103t-216 -65t-293 -23.5q-381 0 -573 155.5t-192 443.5t192 443.5t573 155.5q164 0 292.5 -23.5t215 -64.5t145.5 -102t89 -130.5t40 -155.5h-508q-5 27 -20 51t-44.5 47.5t-83.5 37
t-126 13.5q-140 0 -212 -72t-72 -200t72 -200t212 -72z" />
    <glyph glyph-name="d" unicode="d" horiz-adv-x="1679" 
d="M1110 986h12v497h463v-1483h-454v119h-13q-157 -165 -426 -165q-296 0 -466.5 153.5t-170.5 437.5t170.5 437t466.5 153q257 0 418 -149zM831 281q151 0 228.5 70.5t77.5 193.5t-77.5 193t-228.5 70q-148 0 -221.5 -68t-73.5 -195q0 -128 73.5 -196t221.5 -68z" />
    <glyph glyph-name="e" unicode="e" 
d="M1606 553q0 -63 -6 -109h-1061q16 -105 86.5 -155t204.5 -50q207 0 264 104h496q-4 -61 -26 -113t-75.5 -104.5t-135.5 -89t-216 -59.5t-307 -23q-388 0 -581.5 155t-193.5 444q0 288 193.5 443.5t581.5 155.5t582 -155.5t194 -443.5zM830 868q-233 0 -281 -160h563
q-48 160 -282 160z" />
    <glyph glyph-name="f" unicode="f" horiz-adv-x="1013" 
d="M860 1239q-122 0 -161.5 -27.5t-27.5 -105.5h285v-267h-285v-839h-463v839h-182v267h182v77q0 105 36 176t110 110.5t171 56t235 16.5q56 0 104.5 -3t79.5 -6.5t37 -3.5v-296q-81 6 -121 6z" />
    <glyph glyph-name="g" unicode="g" horiz-adv-x="1658" 
d="M1111 1106h454v-1038q0 -67 -7 -117.5t-27 -101.5t-54 -87.5t-89.5 -68.5t-133 -52t-185 -31t-243.5 -11q-130 0 -236 12t-180.5 32t-131.5 51t-91.5 63.5t-57 75.5t-32 81.5t-13.5 85.5h503q4 -23 13.5 -40.5t33.5 -36.5t72.5 -29.5t119.5 -10.5q88 0 143.5 11.5t84 37
t38.5 56.5t10 80v169h-12q-67 -70 -173.5 -108.5t-239.5 -38.5q-291 0 -456.5 134t-165.5 389t165.5 388.5t456.5 133.5q135 0 244.5 -40t176.5 -116h13v127zM818 407q147 0 220 55t73 151t-73 150.5t-220 54.5q-141 0 -211.5 -53.5t-70.5 -151.5t71 -152t211 -54z" />
    <glyph glyph-name="h" unicode="h" horiz-adv-x="1632" 
d="M1043 1135q227 0 361 -108.5t134 -323.5v-703h-463v562q0 212 -231 212q-54 0 -101.5 -13t-91 -42.5t-69 -86t-25.5 -135.5v-497h-463v1483h463v-515h12q179 167 474 167z" />
    <glyph glyph-name="i" unicode="i" horiz-adv-x="651" 
d="M90 1237v254h471v-254h-471zM94 0v1106h463v-1106h-463z" />
    <glyph glyph-name="j" unicode="j" horiz-adv-x="651" 
d="M90 1237v254h471v-254h-471zM10 -39q42 0 63 19t21 71v1055h463v-1174q0 -81 -14.5 -136.5t-46 -94.5t-87.5 -61t-131 -31.5t-185 -9.5q-112 0 -177 7v357q6 0 38.5 -1t55.5 -1z" />
    <glyph glyph-name="k" unicode="k" horiz-adv-x="1538" 
d="M1000 673l541 -673h-550l-296 401l-138 -123v-278h-463v1483h463v-752l403 375h531z" />
    <glyph glyph-name="l" unicode="l" horiz-adv-x="651" 
d="M94 0v1483h463v-1483h-463z" />
    <glyph glyph-name="m" unicode="m" horiz-adv-x="2473" 
d="M548 1106v-144h12q73 86 198 129.5t260 43.5q148 0 249.5 -39.5t155.5 -136.5q165 176 494 176q99 0 182 -26t146 -77.5t98.5 -135.5t35.5 -193v-703h-463v591q0 183 -200 183q-47 0 -87.5 -11t-78.5 -36.5t-60 -74.5t-22 -117v-535h-463v591q0 183 -200 183
q-47 0 -87.5 -11t-78.5 -36.5t-60 -74.5t-22 -117v-535h-463v1106h454z" />
    <glyph glyph-name="n" unicode="n" horiz-adv-x="1632" 
d="M548 1106v-138h12q190 167 483 167q227 0 361 -108.5t134 -323.5v-703h-463v562q0 212 -231 212q-54 0 -101.5 -13t-91 -42.5t-69 -86t-25.5 -135.5v-497h-463v1106h454z" />
    <glyph glyph-name="o" unicode="o" 
d="M830 1152q388 0 582 -155.5t194 -443.5q0 -289 -194 -444t-582 -155t-581.5 155t-193.5 444q0 288 193.5 443.5t581.5 155.5zM830 281q147 0 221 71.5t74 200.5t-74 200.5t-221 71.5t-220.5 -71.5t-73.5 -200.5t73.5 -200.5t220.5 -71.5z" />
    <glyph glyph-name="p" unicode="p" horiz-adv-x="1679" 
d="M569 104h-12v-477h-463v1479h454v-136h12q157 165 427 165q296 0 466.5 -153t170.5 -437t-170.5 -437.5t-466.5 -153.5q-256 0 -418 150zM847 808q-151 0 -228 -70t-77 -193t77 -193.5t228 -70.5q148 0 222 68.5t74 195.5t-74 195t-222 68z" />
    <glyph glyph-name="q" unicode="q" horiz-adv-x="1679" 
d="M1110 104q-162 -150 -418 -150q-296 0 -466.5 153.5t-170.5 437.5t170.5 437t466.5 153q269 0 426 -165h13v136h454v-1479h-463v477h-12zM831 808q-148 0 -221.5 -68t-73.5 -195q0 -128 73.5 -196t221.5 -68q151 0 228.5 70.5t77.5 193.5t-77.5 193t-228.5 70z" />
    <glyph glyph-name="r" unicode="r" horiz-adv-x="1187" 
d="M94 1106h454v-148h12q87 93 208.5 135t291.5 42q49 0 85 -6v-442q-97 22 -198 22q-64 0 -116 -7t-105 -27.5t-88.5 -54t-58 -90t-22.5 -132.5v-398h-463v1106z" />
    <glyph glyph-name="s" unicode="s" horiz-adv-x="1593" 
d="M1002 781q-11 104 -249 104q-100 0 -147.5 -20.5t-47.5 -54.5q0 -31 24.5 -45t91.5 -22l427 -46q231 -25 333.5 -102.5t102.5 -257.5q0 -91 -32.5 -158t-92 -110t-155 -69t-208 -36t-265.5 -10q-141 0 -247 9.5t-203 35.5t-159.5 70t-101 114.5t-42.5 166.5h509
q6 -69 63.5 -96t190.5 -27q130 0 181 22.5t51 62.5q0 35 -27 50.5t-96 24.5l-390 50q-114 14 -192 36t-138.5 61t-89.5 100t-29 148t35 152t94.5 106t149.5 66.5t190 35.5t226 10q163 0 288.5 -18t227.5 -59t158 -115t61 -179h-492z" />
    <glyph glyph-name="t" unicode="t" horiz-adv-x="1005" 
d="M793 344q107 0 149 3v-347q-150 -18 -271 -18q-184 0 -286.5 35t-146 111.5t-43.5 213.5v497h-182v267h182v299h462v-299h285v-267h-285v-410q0 -48 33.5 -66.5t102.5 -18.5z" />
    <glyph glyph-name="u" unicode="u" horiz-adv-x="1632" 
d="M1084 0v138h-13q-190 -167 -483 -167q-226 0 -360 108.5t-134 324.5v702h463v-561q0 -213 231 -213q54 0 101.5 13t91 42.5t69 86t25.5 135.5v497h463v-1106h-454z" />
    <glyph glyph-name="v" unicode="v" horiz-adv-x="1605" 
d="M1081 1106h524l-556 -1106h-493l-557 1106h524l273 -641h12z" />
    <glyph glyph-name="w" unicode="w" horiz-adv-x="2359" 
d="M2353 1106l-451 -1106h-506l-205 631h-12l-205 -631h-509l-456 1106h514l213 -625h12l203 625h463l213 -623h13l201 623h512z" />
    <glyph glyph-name="x" unicode="x" horiz-adv-x="1642" 
d="M1129 574l508 -574h-589l-225 307l-229 -307h-589l508 574l-455 532h557l208 -292l203 292h558z" />
    <glyph glyph-name="y" unicode="y" horiz-adv-x="1605" 
d="M1605 1106l-566 -1125q-43 -85 -78 -141.5t-76.5 -101.5t-83 -70t-101 -41.5t-125 -22t-159.5 -5.5h-238v365h173q84 0 117.5 13t50.5 49l17 35l-537 1045h524l273 -641h12l273 641h524z" />
    <glyph glyph-name="z" unicode="z" horiz-adv-x="1413" 
d="M1337 0h-1284v334l609 453h-566v319h1241v-329l-610 -455h610v-322z" />
    <glyph glyph-name="braceleft" unicode="{" horiz-adv-x="989" 
d="M700 844q0 -217 -220 -256v-13q220 -39 220 -258v-266q0 -30 3 -47t14 -36t37.5 -27.5t68.5 -8.5h109v-284h-320q-352 0 -352 257v336q0 108 -50 145.5t-152 37.5v315q102 0 152 37.5t50 145.5v339q0 255 352 255h320v-285h-109q-42 0 -68.5 -8.5t-37.5 -27.5t-14 -36
t-3 -47v-268z" />
    <glyph glyph-name="bar" unicode="|" horiz-adv-x="657" 
d="M550 1634v-2097h-442v2097h442z" />
    <glyph glyph-name="braceright" unicode="}" horiz-adv-x="978" 
d="M288 844v268q0 30 -3 47t-14 36t-37.5 27.5t-68.5 8.5h-109v285h320q352 0 352 -255v-339q0 -108 50.5 -145.5t152.5 -37.5v-315q-102 0 -152.5 -37.5t-50.5 -145.5v-336q0 -257 -352 -257h-320v284h109q42 0 68.5 8.5t37.5 27.5t14 36t3 47v266q0 219 220 258v13
q-220 39 -220 256z" />
    <glyph glyph-name="asciitilde" unicode="~" horiz-adv-x="1331" 
d="M950 716q53 0 112.5 41.5t143.5 133.5v-301q-124 -142 -256 -142q-46 0 -93.5 12.5t-70 22.5t-59.5 29l-148 73q-1 1 -15 8t-18.5 9t-18.5 9t-21.5 9.5t-21.5 8t-24.5 8t-24.5 5.5t-27.5 4t-27.5 1q-54 0 -113 -41.5t-143 -132.5v301q126 141 256 141q46 0 94 -12.5
t70.5 -22.5t59.5 -29l148 -74q4 -2 20.5 -10t24 -12t24.5 -11t29.5 -11t30 -8.5t34.5 -6.5t35 -2z" />
    <glyph glyph-name="uni00A0" unicode="&#xa0;" horiz-adv-x="276" 
 />
    <glyph glyph-name="exclamdown" unicode="&#xa1;" horiz-adv-x="747" 
d="M131 1106h485v-406h-485v406zM569 588l70 -704v-240h-531v240l70 704h391z" />
    <glyph glyph-name="cent" unicode="&#xa2;" horiz-adv-x="1658" 
d="M1604 437q-9 -84 -37 -153.5t-83 -129.5t-135.5 -102t-199 -67.5t-268.5 -29.5v-223h-126v224q-349 13 -524.5 167t-175.5 430q0 275 175.5 430t524.5 168v192h126v-192q186 -5 322.5 -42t219 -102t125 -146t54.5 -185h-508q-9 53 -58.5 94.5t-154.5 51.5v-538
q106 10 156 53t59 100h508zM536 553q0 -112 55 -181.5t164 -85.5v535q-108 -16 -163.5 -86t-55.5 -182z" />
    <glyph glyph-name="sterling" unicode="&#xa3;" horiz-adv-x="1667" 
d="M1197 336q119 -1 206 21t170 83v-411q-42 -28 -128.5 -43t-177.5 -15q-231 0 -481 145q-59 -70 -159 -107.5t-223 -37.5q-159 0 -253 70.5t-94 216.5q0 74 25 130t67 86t89.5 44.5t99.5 14.5q77 0 155 -35q-14 44 -60 102h-326v173h197q-115 135 -115 263q0 98 32 172
t88.5 121.5t141 77t181 41.5t217.5 12q124 0 222.5 -12.5t191.5 -46t157.5 -88.5t109 -144t58.5 -209h-464q-24 179 -254 179q-97 0 -153 -32.5t-56 -101.5q0 -39 20.5 -84.5t37 -68t59.5 -79.5h367v-173h-247q49 -66 49 -139q0 -51 -14 -86q147 -38 264 -39zM382 171
q42 0 75 29t43 90q-74 48 -115 48q-42 0 -68 -24t-26 -63q0 -37 26 -58.5t65 -21.5z" />
    <glyph glyph-name="currency" unicode="&#xa4;" horiz-adv-x="1353" 
d="M1247 754q0 -164 -95 -303l125 -123l-170 -152l-121 117q-140 -88 -311 -88q-167 0 -308 87l-120 -116l-170 152l123 121q-96 141 -96 305q0 163 96 304l-123 122l170 151l120 -115q141 87 308 87q170 0 311 -89l121 117l170 -151l-125 -123q95 -139 95 -303zM675 472
q113 0 194.5 82.5t81.5 199.5t-81.5 199.5t-194.5 82.5t-194.5 -82.5t-81.5 -199.5t81.5 -199.5t194.5 -82.5z" />
    <glyph glyph-name="yen" unicode="&#xa5;" horiz-adv-x="1783" 
d="M1803 1434l-413 -584h179v-171h-301l-80 -113h381v-171h-444v-395h-466v395h-478v171h415l-81 113h-334v171h213l-413 584h547l364 -562l364 562h547z" />
    <glyph glyph-name="brokenbar" unicode="&#xa6;" horiz-adv-x="657" 
d="M550 1634v-895h-442v895h442zM550 430v-893h-442v893h442z" />
    <glyph glyph-name="section" unicode="&#xa7;" horiz-adv-x="1806" 
d="M1790 499q0 -206 -196 -302q47 -73 47 -179q0 -107 -36 -185t-98 -126.5t-160 -77.5t-206 -39.5t-252 -10.5q-139 0 -243 11.5t-197.5 43t-153 84t-95.5 137t-40 199.5h446q2 -56 25 -93.5t66.5 -56.5t93 -26t119.5 -7q132 0 195.5 26t63.5 89q0 25 -10.5 44t-30.5 30
t-37.5 17t-42.5 12l-655 147q-210 47 -293.5 129.5t-83.5 243.5q0 218 232 313q-36 55 -36 155q0 83 23 148.5t68 110.5t104 76.5t137.5 49.5t161.5 25.5t183 7.5q119 0 214.5 -11.5t184 -41t149 -77t97.5 -124t41 -177.5h-449q-11 150 -254 150q-99 0 -150.5 -28t-51.5 -81
q0 -39 24.5 -56t69.5 -26l635 -138q207 -44 299 -130t92 -256zM586 546l667 -147q43 -9 82 -23q26 26 26 69q0 31 -14 53.5t-42.5 37.5t-56.5 23.5t-72 18.5l-589 133q-31 6 -109 30q-47 -29 -47 -80q0 -50 37.5 -74t117.5 -41z" />
    <glyph glyph-name="dieresis" unicode="&#xa8;" horiz-adv-x="1245" 
d="M108 1237v254h424v-254h-424zM713 1237v254h425v-254h-425z" />
    <glyph glyph-name="copyright" unicode="&#xa9;" horiz-adv-x="1703" 
d="M852 -33q-161 0 -307 60.5t-251.5 163t-168 244t-62.5 296.5t62.5 296.5t168 244t251.5 163t307 60.5t307 -60.5t251.5 -163t168 -244t62.5 -296.5t-62.5 -296.5t-168 -244t-251.5 -163t-307 -60.5zM852 99q177 0 327 84.5t237.5 230t87.5 317.5t-87.5 317.5t-237.5 230
t-327 84.5t-327 -84.5t-237.5 -230t-87.5 -317.5t87.5 -317.5t237.5 -230t327 -84.5zM1261 621q-8 -140 -113.5 -234t-293.5 -94q-193 0 -309 113.5t-116 326.5q0 211 116.5 324t308.5 113q94 0 169.5 -24.5t122.5 -66.5t73 -93t31 -108h-207q-20 129 -189 129
q-99 0 -159 -66.5t-60 -207.5q0 -143 60 -210.5t159 -67.5q183 0 201 166h206z" />
    <glyph glyph-name="ordfeminine" unicode="&#xaa;" horiz-adv-x="1034" 
d="M965 898q0 -75 21 -100v-6h-296q-21 23 -21 63v25q-45 -56 -128 -86.5t-187 -30.5q-58 0 -110 12.5t-96 37t-70 68.5t-26 101q0 106 60.5 155.5t173.5 59.5l293 26q40 3 56.5 12.5t16.5 30.5q0 47 -117 47q-51 0 -84 -15t-36 -46h-316q13 228 432 228q103 0 176.5 -9
t134.5 -31.5t92 -65t31 -105.5v-371zM664 1076v22q-12 -9 -64 -18l-158 -25q-77 -13 -77 -68q0 -60 96 -60q79 0 141 38t62 111zM39 234h962v-234h-962v234z" />
    <glyph glyph-name="guillemotleft" unicode="&#xab;" horiz-adv-x="1103" 
d="M81 788l420 290v-361l-232 -154v-10l232 -154v-361l-420 288v462zM603 788l422 290v-361l-232 -154v-10l232 -154v-361l-422 288v462z" />
    <glyph glyph-name="logicalnot" unicode="&#xac;" horiz-adv-x="1329" 
d="M1205 902v-587h-305v298h-776v289h1081z" />
    <glyph glyph-name="registered" unicode="&#xae;" horiz-adv-x="1703" 
d="M852 1495q161 0 307 -60.5t251.5 -163t168 -244t62.5 -296.5t-62.5 -296.5t-168 -244t-251.5 -163t-307 -60.5t-307 60.5t-251.5 163t-168 244t-62.5 296.5t62.5 296.5t168 244t251.5 163t307 60.5zM852 99q176 0 326.5 85t238 230.5t87.5 316.5t-87.5 316.5t-238 230.5
t-326.5 85t-326.5 -85t-238 -230.5t-87.5 -316.5t87.5 -316.5t238 -230.5t326.5 -85zM1232 882q0 -96 -45.5 -161t-132.5 -91l200 -319h-229l-181 299h-158v-299h-200v840h430q150 0 233 -72t83 -197zM686 1001v-242h193q72 0 110 32.5t38 90.5q0 55 -38 87t-110 32h-193z
" />
    <glyph glyph-name="macron" unicode="&#xaf;" horiz-adv-x="1196" 
d="M1089 1253h-981v250h981v-250z" />
    <glyph glyph-name="degree" unicode="&#xb0;" horiz-adv-x="722" 
d="M362 821q-137 0 -230 89t-93 230t92.5 229.5t230.5 88.5q137 0 229.5 -88.5t92.5 -229.5t-92.5 -230t-229.5 -89zM362 973q73 0 115.5 47t42.5 120t-42.5 120t-115.5 47t-116 -47t-43 -120t43 -120t116 -47z" />
    <glyph glyph-name="plusminus" unicode="&#xb1;" horiz-adv-x="1329" 
d="M1205 903v-268h-387v-304h-306v304h-388v268h388v303h306v-303h387zM124 247h1081v-247h-1081v247z" />
    <glyph glyph-name="uni00B2" unicode="&#xb2;" horiz-adv-x="1132" 
d="M526 883q-53 -12 -91 -30t-48 -34h666v-209h-1006v27q0 71 17.5 130.5t50 102t69 75t85.5 56t87 38t86 27.5l175 50q58 16 84 36.5t26 58.5q0 72 -153 72q-173 0 -187 -121h-321q11 173 129.5 250.5t357.5 77.5q253 0 377.5 -59.5t124.5 -208.5q0 -126 -69.5 -189
t-213.5 -95z" />
    <glyph glyph-name="uni00B3" unicode="&#xb3;" horiz-adv-x="1114" 
d="M893 1051q84 -12 125 -59.5t41 -135.5q0 -99 -48.5 -157.5t-162 -87t-309.5 -28.5q-187 0 -296.5 32.5t-157.5 97t-54 175.5h318q6 -51 52.5 -74.5t137.5 -23.5q93 0 142 17.5t49 62.5q0 86 -149 86h-176v182h180q139 0 139 76q0 80 -185 80q-168 0 -174 -97h-300
q7 157 117.5 225t356.5 68q265 0 380.5 -57t115.5 -199q0 -150 -142 -175v-8z" />
    <glyph glyph-name="acute" unicode="&#xb4;" horiz-adv-x="1001" 
d="M894 1533l-391 -303h-395l164 303h622z" />
    <glyph glyph-name="paragraph" unicode="&#xb6;" horiz-adv-x="1513" 
d="M1406 1460v-1837h-301v1590h-181v-1590h-299v932h-31q-267 0 -401.5 116.5t-134.5 336.5q0 219 136 335.5t404 116.5h808z" />
    <glyph glyph-name="periodcentered" unicode="&#xb7;" horiz-adv-x="686" 
d="M344 356q-119 0 -202.5 83.5t-83.5 202.5t83.5 202.5t202.5 83.5t202 -83.5t83 -202.5t-83 -202.5t-202 -83.5z" />
    <glyph glyph-name="cedilla" unicode="&#xb8;" horiz-adv-x="946" 
d="M108 -483v168h12q86 -27 140.5 -35.5t138.5 -8.5q60 0 90.5 12.5t30.5 45.5t-30.5 45.5t-90.5 12.5q-103 0 -169 -16h-12v102l170 208h206l-124 -153q20 4 51 4q166 0 241.5 -46.5t75.5 -154.5q0 -122 -97.5 -171.5t-325.5 -49.5q-174 0 -307 37z" />
    <glyph glyph-name="uni00B9" unicode="&#xb9;" horiz-adv-x="724" 
d="M617 1462v-852h-299v486h-275v196h74q113 0 168.5 43.5t78.5 126.5h253z" />
    <glyph glyph-name="ordmasculine" unicode="&#xba;" horiz-adv-x="1040" 
d="M519 1480q244 0 363 -92.5t119 -264.5q0 -360 -482 -360q-480 0 -480 360q0 172 118 264.5t362 92.5zM519 967q170 0 170 156q0 152 -170 152q-86 0 -127.5 -40t-41.5 -112q0 -74 41.5 -115t127.5 -41zM39 234h962v-234h-962v234z" />
    <glyph glyph-name="guillemotright" unicode="&#xbb;" horiz-adv-x="1087" 
d="M501 788v-462l-422 -288v361l232 154v10l-232 154v361zM1023 788v-462l-420 -288v361l232 154v10l-232 154v361z" />
    <glyph glyph-name="questiondown" unicode="&#xbf;" horiz-adv-x="1603" 
d="M1040 1106v-406h-484v406h484zM1071 132h491q-3 -122 -41.5 -213t-103.5 -149t-163.5 -94t-210.5 -50.5t-257 -14.5q-180 0 -314 22t-233 70t-149.5 129t-50.5 195q0 69 18.5 122.5t56 93.5t81.5 68t108 57l117 52q47 21 77.5 41.5t44 39.5t18.5 31.5t6 28.5l2 27h460
v-48q0 -119 -47 -185t-165 -121l-146 -68q-63 -28 -90.5 -54.5t-27.5 -62.5q0 -111 235 -111q64 0 112 9.5t87 31t60.5 60t24.5 93.5z" />
    <glyph glyph-name="Agrave" unicode="&#xc0;" horiz-adv-x="1961" 
d="M1188 1592h-395l-391 303h622zM1455 0l-101 229h-746l-99 -229h-516l679 1462h623l674 -1462h-514zM756 569h450l-219 501h-12z" />
    <glyph glyph-name="Aacute" unicode="&#xc1;" horiz-adv-x="1961" 
d="M1585 1895l-391 -303h-395l164 303h622zM1455 0l-101 229h-746l-99 -229h-516l679 1462h623l674 -1462h-514zM756 569h450l-219 501h-12z" />
    <glyph glyph-name="Acircumflex" unicode="&#xc2;" horiz-adv-x="1961" 
d="M978 1737l-115 -145h-469l269 301h643l269 -301h-470l-115 145h-12zM1455 0l-101 229h-746l-99 -229h-516l679 1462h623l674 -1462h-514zM756 569h450l-219 501h-12z" />
    <glyph glyph-name="Atilde" unicode="&#xc3;" horiz-adv-x="1961" 
d="M809 1650q-38 0 -51 -16t-15 -57h-302q0 86 29.5 154.5t77 108.5t102.5 61t111 21q59 0 140.5 -24t152 -47.5t103.5 -23.5q38 0 51.5 16t15.5 57h301q0 -86 -30 -154.5t-78 -108.5t-103.5 -61t-111.5 -21q-58 0 -139 23.5t-151 47.5t-103 24zM1455 0l-101 229h-746
l-99 -229h-516l679 1462h623l674 -1462h-514zM756 569h450l-219 501h-12z" />
    <glyph glyph-name="Adieresis" unicode="&#xc4;" horiz-adv-x="1961" 
d="M894 1848v-254h-425v254h425zM1500 1848v-254h-425v254h425zM1455 0l-101 229h-746l-99 -229h-516l679 1462h623l674 -1462h-514zM756 569h450l-219 501h-12z" />
    <glyph glyph-name="Aring" unicode="&#xc5;" horiz-adv-x="1961" 
d="M986 1519q-154 0 -256 76.5t-102 204.5t102.5 205t255.5 77t255.5 -77t102.5 -205t-102 -204.5t-256 -76.5zM986 1897q-49 0 -82 -26.5t-33 -70.5t33 -70.5t82 -26.5t82.5 26.5t33.5 70.5t-33.5 70.5t-82.5 26.5zM1455 0l-101 229h-746l-99 -229h-516l679 1462h623
l674 -1462h-514zM756 569h450l-219 501h-12z" />
    <glyph glyph-name="AE" unicode="&#xc6;" horiz-adv-x="2875" 
d="M1874 349h922v-349h-1372v229h-707l-156 -229h-561l1038 1462h1737v-351h-901v-206h859v-323h-859v-233zM947 569h477v542h-109z" />
    <glyph glyph-name="Ccedilla" unicode="&#xc7;" horiz-adv-x="1986" 
d="M1924 601q-7 -293 -220.5 -459.5t-595.5 -187.5l-44 -56q20 4 51 4q166 0 241.5 -46.5t75.5 -154.5q0 -122 -97.5 -171.5t-325.5 -49.5q-175 0 -308 37v168h12q86 -27 140.5 -35.5t138.5 -8.5q60 0 90.5 12.5t30.5 45.5t-30.5 45.5t-90.5 12.5q-102 0 -168 -16h-12v102
l91 111q-194 11 -347 63.5t-264 147t-170 238t-59 328.5q0 196 66.5 346t190.5 244t295 141.5t386 47.5q426 0 669 -162.5t250 -455.5h-554q-2 32 -13.5 62.5t-38.5 63t-66 57t-103 40t-144 15.5q-205 0 -312.5 -105.5t-107.5 -293.5t107.5 -293t312.5 -105q344 0 361 268
h562z" />
    <glyph glyph-name="Egrave" unicode="&#xc8;" horiz-adv-x="1679" 
d="M261 1895h622l165 -303h-395zM579 1111v-206h958v-323h-958v-233h1022v-349h-1493v1462h1472v-351h-1001z" />
    <glyph glyph-name="Eacute" unicode="&#xc9;" horiz-adv-x="1679" 
d="M1445 1895l-391 -303h-396l165 303h622zM579 1111v-206h958v-323h-958v-233h1022v-349h-1493v1462h1472v-351h-1001z" />
    <glyph glyph-name="Ecircumflex" unicode="&#xca;" horiz-adv-x="1679" 
d="M965 1592l-115 145h-12l-115 -145h-470l269 301h643l269 -301h-469zM579 1111v-206h958v-323h-958v-233h1022v-349h-1493v1462h1472v-351h-1001z" />
    <glyph glyph-name="Edieresis" unicode="&#xcb;" horiz-adv-x="1679" 
d="M328 1594v254h425v-254h-425zM934 1594v254h425v-254h-425zM579 1111v-206h958v-323h-958v-233h1022v-349h-1493v1462h1472v-351h-1001z" />
    <glyph glyph-name="Igrave" unicode="&#xcc;" horiz-adv-x="686" 
d="M-239 1895h622l164 -303h-395zM579 0h-471v1462h471v-1462z" />
    <glyph glyph-name="Iacute" unicode="&#xcd;" horiz-adv-x="686" 
d="M944 1895l-391 -303h-395l164 303h622zM579 0h-471v1462h471v-1462z" />
    <glyph glyph-name="Icircumflex" unicode="&#xce;" horiz-adv-x="686" 
d="M464 1592l-115 145h-12l-115 -145h-469l269 301h643l268 -301h-469zM579 0h-471v1462h471v-1462z" />
    <glyph glyph-name="Idieresis" unicode="&#xcf;" horiz-adv-x="686" 
d="M-172 1594v254h425v-254h-425zM433 1594v254h425v-254h-425zM579 0h-471v1462h471v-1462z" />
    <glyph glyph-name="Eth" unicode="&#xd0;" horiz-adv-x="1933" 
d="M1041 1462q207 0 358 -39.5t258 -125.5t160 -227t53 -339t-53 -339t-160 -227t-258 -125.5t-358 -39.5h-898v604h-151v257h151v601h898zM945 371q205 0 306.5 84.5t101.5 275.5t-101.5 275.5t-306.5 84.5h-331v-230h322v-257h-322v-233h331z" />
    <glyph glyph-name="Ntilde" unicode="&#xd1;" horiz-adv-x="1906" 
d="M1172 1555q-58 0 -139 23.5t-151 47.5t-103 24q-38 0 -51.5 -16t-15.5 -57h-301q0 86 29 154.5t76.5 108.5t102.5 61t111 21q59 0 141 -24t152.5 -47.5t103.5 -23.5q38 0 51.5 16t15.5 57h301q0 -86 -30 -154.5t-78 -108.5t-103.5 -61t-111.5 -21zM1350 1462h449v-1462
h-541l-690 900h-12v-900h-448v1462h556l674 -880h12v880z" />
    <glyph glyph-name="Ograve" unicode="&#xd2;" horiz-adv-x="2050" 
d="M443 1895h622l164 -303h-395zM1025 1510q224 0 400 -47.5t302 -142t193 -243.5t67 -346t-67 -346t-193 -243.5t-302 -142t-400 -47.5t-400 47.5t-302 142t-193 243.5t-67 346t67 346t193 243.5t302 142t400 47.5zM1025 333q222 0 333 104t111 294t-111 294.5t-333 104.5
t-333 -104.5t-111 -294.5t111 -294t333 -104z" />
    <glyph glyph-name="Oacute" unicode="&#xd3;" horiz-adv-x="2050" 
d="M1626 1895l-391 -303h-395l164 303h622zM1025 1510q224 0 400 -47.5t302 -142t193 -243.5t67 -346t-67 -346t-193 -243.5t-302 -142t-400 -47.5t-400 47.5t-302 142t-193 243.5t-67 346t67 346t193 243.5t302 142t400 47.5zM1025 333q222 0 333 104t111 294t-111 294.5
t-333 104.5t-333 -104.5t-111 -294.5t111 -294t333 -104z" />
    <glyph glyph-name="Ocircumflex" unicode="&#xd4;" horiz-adv-x="2050" 
d="M1146 1592l-115 145h-12l-115 -145h-469l268 301h644l268 -301h-469zM1025 1510q224 0 400 -47.5t302 -142t193 -243.5t67 -346t-67 -346t-193 -243.5t-302 -142t-400 -47.5t-400 47.5t-302 142t-193 243.5t-67 346t67 346t193 243.5t302 142t400 47.5zM1025 333
q222 0 333 104t111 294t-111 294.5t-333 104.5t-333 -104.5t-111 -294.5t111 -294t333 -104z" />
    <glyph glyph-name="Otilde" unicode="&#xd5;" horiz-adv-x="2050" 
d="M1243 1555q-58 0 -139 23.5t-151 47.5t-103 24q-38 0 -51.5 -16t-15.5 -57h-301q0 86 29 154.5t76.5 108.5t102.5 61t111 21q59 0 141 -24t152.5 -47.5t103.5 -23.5q38 0 51.5 16t15.5 57h301q0 -86 -30 -154.5t-78 -108.5t-103.5 -61t-111.5 -21zM1025 1510
q224 0 400 -47.5t302 -142t193 -243.5t67 -346t-67 -346t-193 -243.5t-302 -142t-400 -47.5t-400 47.5t-302 142t-193 243.5t-67 346t67 346t193 243.5t302 142t400 47.5zM1025 333q222 0 333 104t111 294t-111 294.5t-333 104.5t-333 -104.5t-111 -294.5t111 -294t333 -104
z" />
    <glyph glyph-name="Odieresis" unicode="&#xd6;" horiz-adv-x="2050" 
d="M510 1594v254h425v-254h-425zM1115 1594v254h425v-254h-425zM1025 1510q224 0 400 -47.5t302 -142t193 -243.5t67 -346t-67 -346t-193 -243.5t-302 -142t-400 -47.5t-400 47.5t-302 142t-193 243.5t-67 346t67 346t193 243.5t302 142t400 47.5zM1025 333q222 0 333 104
t111 294t-111 294.5t-333 104.5t-333 -104.5t-111 -294.5t111 -294t333 -104z" />
    <glyph glyph-name="multiply" unicode="&#xd7;" horiz-adv-x="1296" 
d="M1171 988l-320 -320l320 -321l-203 -204l-320 320l-320 -320l-204 204l320 321l-320 320l204 204l320 -320l320 320z" />
    <glyph glyph-name="Oslash" unicode="&#xd8;" horiz-adv-x="2050" 
d="M1791 1265q196 -198 196 -534q0 -197 -67 -346t-193 -243.5t-302 -142t-400 -47.5q-370 0 -604 126l-185 -160l-162 120l185 160q-196 198 -196 533q0 197 67 346t193 243.5t302 142t400 47.5q370 0 604 -126l185 160l162 -120zM581 731q0 -125 48 -213l649 562
q-100 50 -253 50q-222 0 -333 -104.5t-111 -294.5zM1025 333q222 0 333 104t111 294q0 125 -48 213l-649 -561q100 -50 253 -50z" />
    <glyph glyph-name="Ugrave" unicode="&#xd9;" horiz-adv-x="1896" 
d="M366 1895h622l164 -303h-395zM1317 1462h471v-827q0 -133 -26 -237.5t-78.5 -179t-123.5 -126.5t-168 -82t-204 -43t-240 -13t-240 13t-204 43t-168 82t-123.5 126.5t-78.5 179t-26 237.5v827h471v-826q0 -71 17 -123.5t47.5 -86.5t77.5 -55t101.5 -29.5t125.5 -8.5
t125.5 8.5t101.5 29.5t77.5 55t47.5 86.5t17 123.5v826z" />
    <glyph glyph-name="Uacute" unicode="&#xda;" horiz-adv-x="1896" 
d="M1549 1895l-391 -303h-395l164 303h622zM1317 1462h471v-827q0 -133 -26 -237.5t-78.5 -179t-123.5 -126.5t-168 -82t-204 -43t-240 -13t-240 13t-204 43t-168 82t-123.5 126.5t-78.5 179t-26 237.5v827h471v-826q0 -71 17 -123.5t47.5 -86.5t77.5 -55t101.5 -29.5
t125.5 -8.5t125.5 8.5t101.5 29.5t77.5 55t47.5 86.5t17 123.5v826z" />
    <glyph glyph-name="Ucircumflex" unicode="&#xdb;" horiz-adv-x="1896" 
d="M1069 1592l-115 145h-12l-115 -145h-469l268 301h643l269 -301h-469zM1317 1462h471v-827q0 -133 -26 -237.5t-78.5 -179t-123.5 -126.5t-168 -82t-204 -43t-240 -13t-240 13t-204 43t-168 82t-123.5 126.5t-78.5 179t-26 237.5v827h471v-826q0 -71 17 -123.5t47.5 -86.5
t77.5 -55t101.5 -29.5t125.5 -8.5t125.5 8.5t101.5 29.5t77.5 55t47.5 86.5t17 123.5v826z" />
    <glyph glyph-name="Udieresis" unicode="&#xdc;" horiz-adv-x="1896" 
d="M433 1594v254h425v-254h-425zM1038 1594v254h425v-254h-425zM1317 1462h471v-827q0 -133 -26 -237.5t-78.5 -179t-123.5 -126.5t-168 -82t-204 -43t-240 -13t-240 13t-204 43t-168 82t-123.5 126.5t-78.5 179t-26 237.5v827h471v-826q0 -71 17 -123.5t47.5 -86.5
t77.5 -55t101.5 -29.5t125.5 -8.5t125.5 8.5t101.5 29.5t77.5 55t47.5 86.5t17 123.5v826z" />
    <glyph glyph-name="Yacute" unicode="&#xdd;" horiz-adv-x="1820" 
d="M1512 1895l-391 -303h-395l164 303h622zM1841 1462l-693 -974v-488h-475v488l-692 974h557l373 -573l372 573h558z" />
    <glyph glyph-name="Thorn" unicode="&#xde;" horiz-adv-x="1835" 
d="M1190 1271q307 0 441.5 -121.5t134.5 -375.5q0 -253 -134.5 -373.5t-441.5 -120.5h-611v-280h-471v1462h471v-191h611zM1075 612q92 0 133 36.5t41 112.5t-41 113t-133 37h-496v-299h496z" />
    <glyph glyph-name="germandbls" unicode="&#xdf;" horiz-adv-x="1751" 
d="M1345 860v-12q179 -15 264.5 -115.5t85.5 -269.5q0 -126 -35 -215t-116.5 -154t-222 -96t-345.5 -31q-184 0 -266 29v331q106 -27 237 -27q110 0 188.5 46.5t78.5 135.5q0 175 -316 175h-188v267h170q94 0 152.5 34.5t58.5 99.5q0 119 -234 119q-49 0 -87 -4.5
t-79.5 -20.5t-69 -42.5t-45.5 -73.5t-18 -111v-925h-464v938q0 308 180 440t583 132q165 0 289.5 -18.5t205 -51t130.5 -81.5t70 -105.5t20 -127.5q0 -64 -17.5 -112.5t-50.5 -78.5t-71.5 -47.5t-87.5 -27.5z" />
    <glyph glyph-name="agrave" unicode="&#xe0;" horiz-adv-x="1597" 
d="M238 1533h622l164 -303h-395zM1509 178q0 -127 32 -166v-12h-454q-32 32 -32 109v41q-79 -96 -215.5 -146t-304.5 -50q-74 0 -142.5 12.5t-131.5 41t-109.5 70.5t-74 104.5t-27.5 138.5q0 92 26 158t77.5 107t118 62.5t157.5 30.5l483 46q62 6 89 22t27 50q0 78 -204 78
q-85 0 -142 -25t-63 -77h-488q17 379 688 379q128 0 227.5 -9t189 -33t147.5 -63.5t92 -102t34 -146.5v-620zM1047 479v36q-26 -17 -113 -30l-268 -43q-67 -11 -101 -38t-34 -79q0 -104 166 -104q58 0 116 14.5t112 43.5t88 81t34 119z" />
    <glyph glyph-name="aacute" unicode="&#xe1;" horiz-adv-x="1597" 
d="M1400 1533l-391 -303h-396l165 303h622zM1509 178q0 -127 32 -166v-12h-454q-32 32 -32 109v41q-79 -96 -215.5 -146t-304.5 -50q-74 0 -142.5 12.5t-131.5 41t-109.5 70.5t-74 104.5t-27.5 138.5q0 92 26 158t77.5 107t118 62.5t157.5 30.5l483 46q62 6 89 22t27 50
q0 78 -204 78q-85 0 -142 -25t-63 -77h-488q17 379 688 379q128 0 227.5 -9t189 -33t147.5 -63.5t92 -102t34 -146.5v-620zM1047 479v36q-26 -17 -113 -30l-268 -43q-67 -11 -101 -38t-34 -79q0 -104 166 -104q58 0 116 14.5t112 43.5t88 81t34 119z" />
    <glyph glyph-name="acircumflex" unicode="&#xe2;" horiz-adv-x="1597" 
d="M940 1230l-115 145h-12l-115 -145h-469l269 301h643l269 -301h-470zM1509 178q0 -127 32 -166v-12h-454q-32 32 -32 109v41q-79 -96 -215.5 -146t-304.5 -50q-74 0 -142.5 12.5t-131.5 41t-109.5 70.5t-74 104.5t-27.5 138.5q0 92 26 158t77.5 107t118 62.5t157.5 30.5
l483 46q62 6 89 22t27 50q0 78 -204 78q-85 0 -142 -25t-63 -77h-488q17 379 688 379q128 0 227.5 -9t189 -33t147.5 -63.5t92 -102t34 -146.5v-620zM1047 479v36q-26 -17 -113 -30l-268 -43q-67 -11 -101 -38t-34 -79q0 -104 166 -104q58 0 116 14.5t112 43.5t88 81t34 119
z" />
    <glyph glyph-name="atilde" unicode="&#xe3;" horiz-adv-x="1597" 
d="M1039 1193q-58 0 -139 23.5t-151 47.5t-103 24q-38 0 -51.5 -16t-15.5 -56h-301q0 69 19.5 127.5t51.5 97.5t73.5 66.5t86 40t88.5 12.5q59 0 141 -24t152.5 -47.5t103.5 -23.5q38 0 51.5 16t15.5 57h301q0 -86 -30 -154.5t-78 -108.5t-103.5 -61t-111.5 -21zM1509 178
q0 -127 32 -166v-12h-454q-32 32 -32 109v41q-79 -96 -215.5 -146t-304.5 -50q-74 0 -142.5 12.5t-131.5 41t-109.5 70.5t-74 104.5t-27.5 138.5q0 92 26 158t77.5 107t118 62.5t157.5 30.5l483 46q62 6 89 22t27 50q0 78 -204 78q-85 0 -142 -25t-63 -77h-488
q17 379 688 379q128 0 227.5 -9t189 -33t147.5 -63.5t92 -102t34 -146.5v-620zM1047 479v36q-26 -17 -113 -30l-268 -43q-67 -11 -101 -38t-34 -79q0 -104 166 -104q58 0 116 14.5t112 43.5t88 81t34 119z" />
    <glyph glyph-name="adieresis" unicode="&#xe4;" horiz-adv-x="1597" 
d="M304 1237v254h425v-254h-425zM910 1237v254h425v-254h-425zM1509 178q0 -127 32 -166v-12h-454q-32 32 -32 109v41q-79 -96 -215.5 -146t-304.5 -50q-74 0 -142.5 12.5t-131.5 41t-109.5 70.5t-74 104.5t-27.5 138.5q0 92 26 158t77.5 107t118 62.5t157.5 30.5l483 46
q62 6 89 22t27 50q0 78 -204 78q-85 0 -142 -25t-63 -77h-488q17 379 688 379q128 0 227.5 -9t189 -33t147.5 -63.5t92 -102t34 -146.5v-620zM1047 479v36q-26 -17 -113 -30l-268 -43q-67 -11 -101 -38t-34 -79q0 -104 166 -104q58 0 116 14.5t112 43.5t88 81t34 119z" />
    <glyph glyph-name="aring" unicode="&#xe5;" horiz-adv-x="1597" 
d="M819 1203q-153 0 -255 77t-102 205t102 204.5t255 76.5q154 0 256 -76.5t102 -204.5t-102.5 -205t-255.5 -77zM819 1388q49 0 82.5 26.5t33.5 70.5t-33.5 70.5t-82.5 26.5t-82 -26.5t-33 -70.5t33 -70.5t82 -26.5zM1509 178q0 -127 32 -166v-12h-454q-32 32 -32 109v41
q-79 -96 -215.5 -146t-304.5 -50q-74 0 -142.5 12.5t-131.5 41t-109.5 70.5t-74 104.5t-27.5 138.5q0 92 26 158t77.5 107t118 62.5t157.5 30.5l483 46q62 6 89 22t27 50q0 78 -204 78q-85 0 -142 -25t-63 -77h-488q17 379 688 379q128 0 227.5 -9t189 -33t147.5 -63.5
t92 -102t34 -146.5v-620zM1047 479v36q-26 -17 -113 -30l-268 -43q-67 -11 -101 -38t-34 -79q0 -104 166 -104q58 0 116 14.5t112 43.5t88 81t34 119z" />
    <glyph glyph-name="ae" unicode="&#xe6;" horiz-adv-x="2574" 
d="M2518 553q0 -63 -6 -109h-1021q14 -105 80 -155t191 -50q197 0 244 104h496q-23 -389 -740 -389q-194 0 -335.5 51.5t-203.5 146.5q-90 -102 -233.5 -150t-372.5 -48q-124 0 -224.5 21t-178.5 63.5t-121 114.5t-43 168q0 92 26 158t77.5 107t118 62.5t157.5 30.5l483 46
q62 6 89 22t27 50q0 78 -204 78q-55 0 -98.5 -10t-73.5 -33.5t-33 -58.5h-488q17 379 688 379q386 0 485 -121q64 59 184.5 90t274.5 31q380 0 567.5 -155t187.5 -444zM1763 868q-111 0 -175.5 -39t-87.5 -121h526q-23 82 -87.5 121t-175.5 39zM1047 479v36
q-26 -17 -113 -30l-268 -43q-67 -11 -101 -38t-34 -79q0 -104 166 -104q58 0 116 14.5t112 43.5t88 81t34 119z" />
    <glyph glyph-name="ccedilla" unicode="&#xe7;" horiz-adv-x="1658" 
d="M1604 437q-11 -102 -51 -182.5t-116.5 -145t-203 -103t-298.5 -48.5l-49 -60q20 4 51 4q166 0 241.5 -46.5t75.5 -154.5q0 -122 -97.5 -171.5t-325.5 -49.5q-175 0 -308 37v168h13q86 -27 140.5 -35.5t138.5 -8.5q60 0 90 12.5t30 45.5t-30 45.5t-90 12.5
q-103 0 -169 -16h-12v102l92 113q-334 19 -502.5 173.5t-168.5 423.5q0 288 192 443.5t573 155.5q164 0 292.5 -23.5t215 -64.5t145.5 -102t89 -130.5t40 -155.5h-508q-5 27 -20 51t-44.5 47.5t-83.5 37t-126 13.5q-140 0 -212 -72t-72 -200t72 -200t212 -72q138 0 202 45.5
t74 110.5h508z" />
    <glyph glyph-name="egrave" unicode="&#xe8;" 
d="M1036 1230h-396l-391 303h622zM1606 553q0 -63 -6 -109h-1061q16 -105 86.5 -155t204.5 -50q207 0 264 104h496q-4 -61 -26 -113t-75.5 -104.5t-135.5 -89t-216 -59.5t-307 -23q-388 0 -581.5 155t-193.5 444q0 288 193.5 443.5t581.5 155.5t582 -155.5t194 -443.5z
M830 868q-233 0 -281 -160h563q-48 160 -282 160z" />
    <glyph glyph-name="eacute" unicode="&#xe9;" 
d="M1411 1533l-391 -303h-395l164 303h622zM1606 553q0 -63 -6 -109h-1061q16 -105 86.5 -155t204.5 -50q207 0 264 104h496q-4 -61 -26 -113t-75.5 -104.5t-135.5 -89t-216 -59.5t-307 -23q-388 0 -581.5 155t-193.5 444q0 288 193.5 443.5t581.5 155.5t582 -155.5
t194 -443.5zM830 868q-233 0 -281 -160h563q-48 160 -282 160z" />
    <glyph glyph-name="ecircumflex" unicode="&#xea;" 
d="M824 1375l-114 -145h-470l269 301h643l269 -301h-470l-114 145h-13zM1606 553q0 -63 -6 -109h-1061q16 -105 86.5 -155t204.5 -50q207 0 264 104h496q-4 -61 -26 -113t-75.5 -104.5t-135.5 -89t-216 -59.5t-307 -23q-388 0 -581.5 155t-193.5 444q0 288 193.5 443.5
t581.5 155.5t582 -155.5t194 -443.5zM830 868q-233 0 -281 -160h563q-48 160 -282 160z" />
    <glyph glyph-name="edieresis" unicode="&#xeb;" 
d="M740 1491v-254h-425v254h425zM1346 1491v-254h-425v254h425zM1606 553q0 -63 -6 -109h-1061q16 -105 86.5 -155t204.5 -50q207 0 264 104h496q-4 -61 -26 -113t-75.5 -104.5t-135.5 -89t-216 -59.5t-307 -23q-388 0 -581.5 155t-193.5 444q0 288 193.5 443.5t581.5 155.5
t582 -155.5t194 -443.5zM830 868q-233 0 -281 -160h563q-48 160 -282 160z" />
    <glyph glyph-name="igrave" unicode="&#xec;" horiz-adv-x="651" 
d="M-256 1533h622l164 -303h-395zM94 0v1106h463v-1106h-463z" />
    <glyph glyph-name="iacute" unicode="&#xed;" horiz-adv-x="651" 
d="M906 1533l-391 -303h-396l165 303h622zM94 0v1106h463v-1106h-463z" />
    <glyph glyph-name="icircumflex" unicode="&#xee;" horiz-adv-x="651" 
d="M446 1230l-115 145h-12l-115 -145h-469l269 301h643l268 -301h-469zM94 0v1106h463v-1106h-463z" />
    <glyph glyph-name="idieresis" unicode="&#xef;" horiz-adv-x="651" 
d="M-190 1237v254h425v-254h-425zM415 1237v254h425v-254h-425zM94 0v1106h463v-1106h-463z" />
    <glyph glyph-name="eth" unicode="&#xf0;" horiz-adv-x="1646" 
d="M1054 1359q122 -52 216 -116.5t154 -133t98.5 -148t54 -157.5t15.5 -165q0 -154 -36.5 -271.5t-103.5 -195.5t-169.5 -127.5t-225 -70.5t-279.5 -21q-118 0 -218.5 14.5t-195.5 51t-162 93.5t-107 148t-40 208q0 118 42 210.5t108.5 148.5t159 92.5t183.5 50t192 13.5
q173 0 305 -75l8 4q-74 141 -377 233l-259 -147l-153 105l178 101q-154 29 -283 46l186 278q280 -35 500 -95l232 132l153 -106zM815 276q278 0 278 192q0 191 -278 191q-279 0 -279 -191q0 -192 279 -192z" />
    <glyph glyph-name="ntilde" unicode="&#xf1;" horiz-adv-x="1632" 
d="M1036 1193q-58 0 -139 23.5t-151 47.5t-103 24q-38 0 -51.5 -16t-15.5 -56h-302q0 86 29.5 154.5t77 108.5t102.5 60.5t111 20.5q59 0 140.5 -24t152 -47.5t103.5 -23.5q38 0 51.5 16t15.5 57h302q0 -86 -30 -154.5t-78 -108.5t-103.5 -61t-111.5 -21zM548 1106v-138h12
q190 167 483 167q227 0 361 -108.5t134 -323.5v-703h-463v562q0 212 -231 212q-54 0 -101.5 -13t-91 -42.5t-69 -86t-25.5 -135.5v-497h-463v1106h454z" />
    <glyph glyph-name="ograve" unicode="&#xf2;" 
d="M249 1533h622l165 -303h-396zM830 1152q388 0 582 -155.5t194 -443.5q0 -289 -194 -444t-582 -155t-581.5 155t-193.5 444q0 288 193.5 443.5t581.5 155.5zM830 281q147 0 221 71.5t74 200.5t-74 200.5t-221 71.5t-220.5 -71.5t-73.5 -200.5t73.5 -200.5t220.5 -71.5z
" />
    <glyph glyph-name="oacute" unicode="&#xf3;" 
d="M1411 1533l-391 -303h-395l164 303h622zM830 1152q388 0 582 -155.5t194 -443.5q0 -289 -194 -444t-582 -155t-581.5 155t-193.5 444q0 288 193.5 443.5t581.5 155.5zM830 281q147 0 221 71.5t74 200.5t-74 200.5t-221 71.5t-220.5 -71.5t-73.5 -200.5t73.5 -200.5
t220.5 -71.5z" />
    <glyph glyph-name="ocircumflex" unicode="&#xf4;" 
d="M951 1230l-114 145h-13l-114 -145h-470l269 301h643l269 -301h-470zM830 1152q388 0 582 -155.5t194 -443.5q0 -289 -194 -444t-582 -155t-581.5 155t-193.5 444q0 288 193.5 443.5t581.5 155.5zM830 281q147 0 221 71.5t74 200.5t-74 200.5t-221 71.5t-220.5 -71.5
t-73.5 -200.5t73.5 -200.5t220.5 -71.5z" />
    <glyph glyph-name="otilde" unicode="&#xf5;" 
d="M1050 1193q-58 0 -139 23.5t-151 47.5t-103 24q-38 0 -51 -15.5t-15 -56.5h-302q0 86 29.5 154.5t77 108.5t102.5 60.5t111 20.5q59 0 140.5 -24t152 -47.5t103.5 -23.5q38 0 51.5 16t15.5 57h301q0 -86 -30 -154.5t-78 -108.5t-103.5 -61t-111.5 -21zM830 1152
q388 0 582 -155.5t194 -443.5q0 -289 -194 -444t-582 -155t-581.5 155t-193.5 444q0 288 193.5 443.5t581.5 155.5zM830 281q147 0 221 71.5t74 200.5t-74 200.5t-221 71.5t-220.5 -71.5t-73.5 -200.5t73.5 -200.5t220.5 -71.5z" />
    <glyph glyph-name="odieresis" unicode="&#xf6;" 
d="M315 1237v254h425v-254h-425zM921 1237v254h425v-254h-425zM830 1152q388 0 582 -155.5t194 -443.5q0 -289 -194 -444t-582 -155t-581.5 155t-193.5 444q0 288 193.5 443.5t581.5 155.5zM830 281q147 0 221 71.5t74 200.5t-74 200.5t-221 71.5t-220.5 -71.5t-73.5 -200.5
t73.5 -200.5t220.5 -71.5z" />
    <glyph glyph-name="divide" unicode="&#xf7;" horiz-adv-x="1331" 
d="M665 934q-80 0 -137.5 58t-57.5 138t57.5 137.5t137.5 57.5t137.5 -57.5t57.5 -137.5t-57.5 -138t-137.5 -58zM1206 812v-289h-1082v289h1082zM665 10q-80 0 -137.5 58t-57.5 138t57.5 137.5t137.5 57.5t137.5 -57.5t57.5 -137.5t-57.5 -138t-137.5 -58z" />
    <glyph glyph-name="oslash" unicode="&#xf8;" 
d="M1453 961q153 -150 153 -408q0 -289 -194 -444t-582 -155q-310 0 -498 101l-124 -100l-128 87l128 103q-153 150 -153 408q0 288 193.5 443.5t581.5 155.5q311 0 499 -101l124 100l128 -87zM536 553q0 -71 22 -124l445 359q-69 37 -173 37q-147 0 -220.5 -71.5
t-73.5 -200.5zM830 281q147 0 221 71.5t74 200.5q0 72 -22 125l-445 -360q69 -37 172 -37z" />
    <glyph glyph-name="ugrave" unicode="&#xf9;" horiz-adv-x="1632" 
d="M234 1533h623l164 -303h-395zM1084 0v138h-13q-190 -167 -483 -167q-226 0 -360 108.5t-134 324.5v702h463v-561q0 -213 231 -213q54 0 101.5 13t91 42.5t69 86t25.5 135.5v497h463v-1106h-454z" />
    <glyph glyph-name="uacute" unicode="&#xfa;" horiz-adv-x="1632" 
d="M1396 1533l-391 -303h-395l164 303h622zM1084 0v138h-13q-190 -167 -483 -167q-226 0 -360 108.5t-134 324.5v702h463v-561q0 -213 231 -213q54 0 101.5 13t91 42.5t69 86t25.5 135.5v497h463v-1106h-454z" />
    <glyph glyph-name="ucircumflex" unicode="&#xfb;" horiz-adv-x="1632" 
d="M937 1230l-115 145h-12l-115 -145h-469l268 301h643l269 -301h-469zM1084 0v138h-13q-190 -167 -483 -167q-226 0 -360 108.5t-134 324.5v702h463v-561q0 -213 231 -213q54 0 101.5 13t91 42.5t69 86t25.5 135.5v497h463v-1106h-454z" />
    <glyph glyph-name="udieresis" unicode="&#xfc;" horiz-adv-x="1632" 
d="M301 1237v254h425v-254h-425zM906 1237v254h425v-254h-425zM1084 0v138h-13q-190 -167 -483 -167q-226 0 -360 108.5t-134 324.5v702h463v-561q0 -213 231 -213q54 0 101.5 13t91 42.5t69 86t25.5 135.5v497h463v-1106h-454z" />
    <glyph glyph-name="yacute" unicode="&#xfd;" horiz-adv-x="1605" 
d="M1383 1533l-391 -303h-396l165 303h622zM1605 1106l-566 -1125q-43 -85 -78 -141.5t-76.5 -101.5t-83 -70t-101 -41.5t-125 -22t-159.5 -5.5h-238v365h173q84 0 117.5 13t50.5 49l17 35l-537 1045h524l273 -641h12l273 641h524z" />
    <glyph glyph-name="thorn" unicode="&#xfe;" horiz-adv-x="1679" 
d="M569 104h-12v-477h-463v1856h463v-497h12q161 149 418 149q296 0 466.5 -153t170.5 -437t-170.5 -437.5t-466.5 -153.5q-256 0 -418 150zM847 808q-151 0 -228 -70t-77 -193t77 -193.5t228 -70.5q148 0 222 68.5t74 195.5t-74 195t-222 68z" />
    <glyph glyph-name="ydieresis" unicode="&#xff;" horiz-adv-x="1605" 
d="M287 1237v254h425v-254h-425zM893 1237v254h425v-254h-425zM1605 1106l-566 -1125q-43 -85 -78 -141.5t-76.5 -101.5t-83 -70t-101 -41.5t-125 -22t-159.5 -5.5h-238v365h173q84 0 117.5 13t50.5 49l17 35l-537 1045h524l273 -641h12l273 641h524z" />
    <glyph glyph-name="Amacron" unicode="&#x100;" horiz-adv-x="1961" 
d="M1475 1848v-251h-981v251h981zM1455 0l-101 229h-746l-99 -229h-516l679 1462h623l674 -1462h-514zM756 569h450l-219 501h-12z" />
    <glyph glyph-name="amacron" unicode="&#x101;" horiz-adv-x="1597" 
d="M1310 1253h-981v250h981v-250zM1509 178q0 -127 32 -166v-12h-454q-32 32 -32 109v41q-79 -96 -215.5 -146t-304.5 -50q-74 0 -142.5 12.5t-131.5 41t-109.5 70.5t-74 104.5t-27.5 138.5q0 92 26 158t77.5 107t118 62.5t157.5 30.5l483 46q62 6 89 22t27 50q0 78 -204 78
q-85 0 -142 -25t-63 -77h-488q17 379 688 379q128 0 227.5 -9t189 -33t147.5 -63.5t92 -102t34 -146.5v-620zM1047 479v36q-26 -17 -113 -30l-268 -43q-67 -11 -101 -38t-34 -79q0 -104 166 -104q58 0 116 14.5t112 43.5t88 81t34 119z" />
    <glyph glyph-name="Abreve" unicode="&#x102;" horiz-adv-x="1961" 
d="M984 1568q-89 0 -172.5 20.5t-154.5 59.5t-114.5 104.5t-46.5 148.5h361q11 -86 127 -86q117 0 128 86h363q-3 -83 -47 -148.5t-115.5 -104.5t-155.5 -59.5t-173 -20.5zM1455 0l-101 229h-746l-99 -229h-516l679 1462h623l674 -1462h-514zM756 569h450l-219 501h-12z" />
    <glyph glyph-name="abreve" unicode="&#x103;" horiz-adv-x="1597" 
d="M1308 1537q-2 -67 -32 -123t-78 -94.5t-111.5 -65t-131.5 -39t-138 -12.5q-89 0 -172.5 20.5t-154 60t-114.5 105t-47 148.5h361q11 -87 127 -87q117 0 128 87h363zM1509 178q0 -127 32 -166v-12h-454q-32 32 -32 109v41q-79 -96 -215.5 -146t-304.5 -50
q-74 0 -142.5 12.5t-131.5 41t-109.5 70.5t-74 104.5t-27.5 138.5q0 92 26 158t77.5 107t118 62.5t157.5 30.5l483 46q62 6 89 22t27 50q0 78 -204 78q-85 0 -142 -25t-63 -77h-488q17 379 688 379q128 0 227.5 -9t189 -33t147.5 -63.5t92 -102t34 -146.5v-620zM1047 479v36
q-26 -17 -113 -30l-268 -43q-67 -11 -101 -38t-34 -79q0 -104 166 -104q58 0 116 14.5t112 43.5t88 81t34 119z" />
    <glyph glyph-name="Aogonek" unicode="&#x104;" horiz-adv-x="1961" 
d="M1739 -193q0 -40 30.5 -58.5t77.5 -18.5q43 0 122 17v-222q-83 -19 -213 -19q-204 0 -306 60t-102 169q0 80 72 151.5t185 113.5h-150l-101 229h-746l-99 -229h-516l679 1462h623l674 -1462q-104 -33 -167 -88.5t-63 -104.5zM756 569h450l-219 501h-12z" />
    <glyph glyph-name="aogonek" unicode="&#x105;" horiz-adv-x="1597" 
d="M1541 0q-104 -33 -166.5 -88t-62.5 -105q0 -40 30.5 -58.5t78.5 -18.5q41 0 120 17v-222q-83 -19 -212 -19q-204 0 -305 60t-101 169q0 80 71.5 151.5t183.5 113.5h-91q-32 32 -32 109v41q-79 -96 -215.5 -146t-304.5 -50q-74 0 -142.5 12.5t-131.5 41t-109.5 70.5
t-74 104.5t-27.5 138.5q0 92 26 158t77.5 107t118 62.5t157.5 30.5l483 46q62 6 89 22t27 50q0 78 -204 78q-85 0 -142 -25t-63 -77h-488q17 379 688 379q128 0 227.5 -9t189 -33t147.5 -63.5t92 -102t34 -146.5v-620q0 -127 32 -166v-12zM1047 479v36q-26 -17 -113 -30
l-268 -43q-67 -11 -101 -38t-34 -79q0 -104 166 -104q58 0 116 14.5t112 43.5t88 81t34 119z" />
    <glyph glyph-name="Cacute" unicode="&#x106;" horiz-adv-x="1986" 
d="M1602 1895l-391 -303h-395l164 303h622zM1366 892q-2 32 -13.5 62.5t-38.5 63t-66 57t-103 40t-144 15.5q-205 0 -312.5 -105.5t-107.5 -293.5t107.5 -293t312.5 -105q344 0 361 268h562q-7 -314 -250 -481.5t-673 -167.5q-215 0 -386 47.5t-295 141.5t-190.5 244
t-66.5 346t66.5 346t190.5 244t295 141.5t386 47.5q426 0 669 -162.5t250 -455.5h-554z" />
    <glyph glyph-name="cacute" unicode="&#x107;" horiz-adv-x="1658" 
d="M1400 1533l-391 -303h-395l164 303h622zM820 281q138 0 202 45.5t74 110.5h508q-9 -88 -39 -159t-89.5 -132.5t-146.5 -103t-216 -65t-293 -23.5q-381 0 -573 155.5t-192 443.5t192 443.5t573 155.5q164 0 292.5 -23.5t215 -64.5t145.5 -102t89 -130.5t40 -155.5h-508
q-5 27 -20 51t-44.5 47.5t-83.5 37t-126 13.5q-140 0 -212 -72t-72 -200t72 -200t212 -72z" />
    <glyph glyph-name="Ccircumflex" unicode="&#x108;" horiz-adv-x="1986" 
d="M1122 1592l-115 145h-12l-115 -145h-469l269 301h643l269 -301h-470zM1366 892q-2 32 -13.5 62.5t-38.5 63t-66 57t-103 40t-144 15.5q-205 0 -312.5 -105.5t-107.5 -293.5t107.5 -293t312.5 -105q344 0 361 268h562q-7 -314 -250 -481.5t-673 -167.5q-215 0 -386 47.5
t-295 141.5t-190.5 244t-66.5 346t66.5 346t190.5 244t295 141.5t386 47.5q426 0 669 -162.5t250 -455.5h-554z" />
    <glyph glyph-name="ccircumflex" unicode="&#x109;" horiz-adv-x="1658" 
d="M941 1230l-115 145h-12l-115 -145h-470l269 301h643l269 -301h-469zM820 281q138 0 202 45.5t74 110.5h508q-9 -88 -39 -159t-89.5 -132.5t-146.5 -103t-216 -65t-293 -23.5q-381 0 -573 155.5t-192 443.5t192 443.5t573 155.5q164 0 292.5 -23.5t215 -64.5t145.5 -102
t89 -130.5t40 -155.5h-508q-5 27 -20 51t-44.5 47.5t-83.5 37t-126 13.5q-140 0 -212 -72t-72 -200t72 -200t212 -72z" />
    <glyph glyph-name="Cdotaccent" unicode="&#x10a;" horiz-adv-x="1986" 
d="M766 1594v254h471v-254h-471zM1366 892q-2 32 -13.5 62.5t-38.5 63t-66 57t-103 40t-144 15.5q-205 0 -312.5 -105.5t-107.5 -293.5t107.5 -293t312.5 -105q344 0 361 268h562q-7 -314 -250 -481.5t-673 -167.5q-215 0 -386 47.5t-295 141.5t-190.5 244t-66.5 346
t66.5 346t190.5 244t295 141.5t386 47.5q426 0 669 -162.5t250 -455.5h-554z" />
    <glyph glyph-name="cdotaccent" unicode="&#x10b;" horiz-adv-x="1658" 
d="M584 1237v254h471v-254h-471zM820 281q138 0 202 45.5t74 110.5h508q-9 -88 -39 -159t-89.5 -132.5t-146.5 -103t-216 -65t-293 -23.5q-381 0 -573 155.5t-192 443.5t192 443.5t573 155.5q164 0 292.5 -23.5t215 -64.5t145.5 -102t89 -130.5t40 -155.5h-508q-5 27 -20 51
t-44.5 47.5t-83.5 37t-126 13.5q-140 0 -212 -72t-72 -200t72 -200t212 -72z" />
    <glyph glyph-name="Ccaron" unicode="&#x10c;" horiz-adv-x="1986" 
d="M1122 1895h470l-269 -301h-643l-269 301h469l115 -145h12zM1366 892q-2 32 -13.5 62.5t-38.5 63t-66 57t-103 40t-144 15.5q-205 0 -312.5 -105.5t-107.5 -293.5t107.5 -293t312.5 -105q344 0 361 268h562q-7 -314 -250 -481.5t-673 -167.5q-215 0 -386 47.5t-295 141.5
t-190.5 244t-66.5 346t66.5 346t190.5 244t295 141.5t386 47.5q426 0 669 -162.5t250 -455.5h-554z" />
    <glyph glyph-name="ccaron" unicode="&#x10d;" horiz-adv-x="1658" 
d="M941 1531h469l-269 -301h-643l-269 301h470l115 -146h12zM820 281q138 0 202 45.5t74 110.5h508q-9 -88 -39 -159t-89.5 -132.5t-146.5 -103t-216 -65t-293 -23.5q-381 0 -573 155.5t-192 443.5t192 443.5t573 155.5q164 0 292.5 -23.5t215 -64.5t145.5 -102t89 -130.5
t40 -155.5h-508q-5 27 -20 51t-44.5 47.5t-83.5 37t-126 13.5q-140 0 -212 -72t-72 -200t72 -200t212 -72z" />
    <glyph glyph-name="Dcaron" unicode="&#x10e;" horiz-adv-x="1898" 
d="M992 1894h470l-269 -301h-643l-269 301h470l114 -146h13zM1006 1462q207 0 358 -39.5t258 -125.5t160 -227t53 -339t-53 -339t-160 -227t-258 -125.5t-358 -39.5h-898v1462h898zM910 1091h-331v-720h331q205 0 306 84.5t101 275.5t-101 275.5t-306 84.5z" />
    <glyph glyph-name="dcaron" unicode="&#x10f;" horiz-adv-x="2082" 
d="M1110 986h12v497h463v-1483h-454v119h-13q-157 -165 -426 -165q-296 0 -466.5 153.5t-170.5 437.5t170.5 437t466.5 153q257 0 418 -149zM2058 1483v-178q0 -192 -88 -278t-294 -86v139q100 0 139 31t39 104h-178v268h382zM831 281q151 0 228.5 70.5t77.5 193.5
t-77.5 193t-228.5 70q-148 0 -221.5 -68t-73.5 -195q0 -128 73.5 -196t221.5 -68z" />
    <glyph glyph-name="Dcroat" unicode="&#x110;" horiz-adv-x="1947" 
d="M1041 1462q207 0 358 -39.5t258 -125.5t160 -227t53 -339t-53 -339t-160 -227t-258 -125.5t-358 -39.5h-898v604h-151v257h151v601h898zM945 371q205 0 306.5 84.5t101.5 275.5t-101.5 275.5t-306.5 84.5h-331v-230h322v-257h-322v-233h331z" />
    <glyph glyph-name="dcroat" unicode="&#x111;" horiz-adv-x="1724" 
d="M1585 1382h151v-208h-151v-1174h-454v119h-13q-157 -165 -426 -165q-296 0 -466.5 153.5t-170.5 437.5t170.5 437t466.5 153q257 0 418 -149h12v188h-274v208h274v101h463v-101zM831 281q151 0 228.5 70.5t77.5 193.5t-77.5 193t-228.5 70q-148 0 -221.5 -68t-73.5 -195
q0 -128 73.5 -196t221.5 -68z" />
    <glyph glyph-name="Emacron" unicode="&#x112;" horiz-adv-x="1679" 
d="M1334 1597h-981v251h981v-251zM579 1111v-206h958v-323h-958v-233h1022v-349h-1493v1462h1472v-351h-1001z" />
    <glyph glyph-name="emacron" unicode="&#x113;" 
d="M1321 1503v-250h-981v250h981zM1606 553q0 -63 -6 -109h-1061q16 -105 86.5 -155t204.5 -50q207 0 264 104h496q-4 -61 -26 -113t-75.5 -104.5t-135.5 -89t-216 -59.5t-307 -23q-388 0 -581.5 155t-193.5 444q0 288 193.5 443.5t581.5 155.5t582 -155.5t194 -443.5z
M830 868q-233 0 -281 -160h563q-48 160 -282 160z" />
    <glyph glyph-name="Ebreve" unicode="&#x114;" horiz-adv-x="1679" 
d="M1334 1901q-3 -83 -47 -148.5t-115 -104.5t-155 -59.5t-173 -20.5t-172.5 20.5t-154.5 59.5t-115 104.5t-47 148.5h361q11 -86 128 -86q116 0 127 86h363zM579 1111v-206h958v-323h-958v-233h1022v-349h-1493v1462h1472v-351h-1001z" />
    <glyph glyph-name="ebreve" unicode="&#x115;" 
d="M829 1203q-89 0 -172.5 20.5t-154.5 60t-115 105t-47 148.5h361q11 -87 128 -87q116 0 127 87h363q-2 -67 -31.5 -123t-78 -94.5t-111.5 -65t-131 -39t-138 -12.5zM1606 553q0 -63 -6 -109h-1061q16 -105 86.5 -155t204.5 -50q207 0 264 104h496q-4 -61 -26 -113
t-75.5 -104.5t-135.5 -89t-216 -59.5t-307 -23q-388 0 -581.5 155t-193.5 444q0 288 193.5 443.5t581.5 155.5t582 -155.5t194 -443.5zM830 868q-233 0 -281 -160h563q-48 160 -282 160z" />
    <glyph glyph-name="Edotaccent" unicode="&#x116;" horiz-adv-x="1679" 
d="M608 1594v254h471v-254h-471zM579 1111v-206h958v-323h-958v-233h1022v-349h-1493v1462h1472v-351h-1001z" />
    <glyph glyph-name="edotaccent" unicode="&#x117;" 
d="M1066 1491v-254h-471v254h471zM1606 553q0 -63 -6 -109h-1061q16 -105 86.5 -155t204.5 -50q207 0 264 104h496q-4 -61 -26 -113t-75.5 -104.5t-135.5 -89t-216 -59.5t-307 -23q-388 0 -581.5 155t-193.5 444q0 288 193.5 443.5t581.5 155.5t582 -155.5t194 -443.5z
M830 868q-233 0 -281 -160h563q-48 160 -282 160z" />
    <glyph glyph-name="Eogonek" unicode="&#x118;" horiz-adv-x="1679" 
d="M1601 0q-104 -33 -167 -88.5t-63 -104.5q0 -40 30.5 -58.5t77.5 -18.5q43 0 122 17v-222q-83 -19 -212 -19q-204 0 -306.5 60t-102.5 169q0 79 72.5 151t185.5 114h-1130v1462h1472v-351h-1001v-206h958v-323h-958v-233h1022v-349z" />
    <glyph glyph-name="eogonek" unicode="&#x119;" 
d="M1606 553q0 -63 -6 -109h-1061q16 -105 86.5 -155t204.5 -50q207 0 264 104h496q-3 -54 -22.5 -102.5t-59.5 -96t-111.5 -86t-169.5 -63.5q-99 -33 -158 -86.5t-59 -101.5q0 -39 27.5 -58t62.5 -19q61 0 140 17v-222q-83 -19 -212 -19q-204 0 -305 60t-101 169
q0 60 43 117.5t116 101.5q-364 11 -545 165.5t-181 433.5q0 288 193.5 443.5t581.5 155.5t582 -155.5t194 -443.5zM830 868q-233 0 -281 -160h563q-48 160 -282 160z" />
    <glyph glyph-name="Ecaron" unicode="&#x11a;" horiz-adv-x="1679" 
d="M965 1895h469l-269 -301h-643l-269 301h470l115 -145h12zM579 1111v-206h958v-323h-958v-233h1022v-349h-1493v1462h1472v-351h-1001z" />
    <glyph glyph-name="ecaron" unicode="&#x11b;" 
d="M1152 1230h-643l-269 301h470l114 -146h13l114 146h470zM1606 553q0 -63 -6 -109h-1061q16 -105 86.5 -155t204.5 -50q207 0 264 104h496q-4 -61 -26 -113t-75.5 -104.5t-135.5 -89t-216 -59.5t-307 -23q-388 0 -581.5 155t-193.5 444q0 288 193.5 443.5t581.5 155.5
t582 -155.5t194 -443.5zM830 868q-233 0 -281 -160h563q-48 160 -282 160z" />
    <glyph glyph-name="Gcircumflex" unicode="&#x11c;" horiz-adv-x="2031" 
d="M1141 1592l-114 145h-12l-115 -145h-470l269 301h643l269 -301h-470zM1935 816v-816h-333v158q-199 -206 -565 -206q-228 0 -406.5 47t-306 142t-194.5 244t-67 346q0 196 67 345.5t192.5 244t301 142t397.5 47.5q431 0 661.5 -150t246.5 -406h-553q-54 176 -355 176
q-219 0 -329.5 -104.5t-110.5 -294.5q0 -201 112.5 -307t343.5 -106q99 0 176.5 23t117.5 56t60 63.5t20 52.5h-339v303h863z" />
    <glyph glyph-name="gcircumflex" unicode="&#x11d;" horiz-adv-x="1658" 
d="M931 1230l-115 145h-12l-115 -145h-469l268 301h644l268 -301h-469zM1111 1106h454v-1038q0 -67 -7 -117.5t-27 -101.5t-54 -87.5t-89.5 -68.5t-133 -52t-185 -31t-243.5 -11q-130 0 -236 12t-180.5 32t-131.5 51t-91.5 63.5t-57 75.5t-32 81.5t-13.5 85.5h503
q4 -23 13.5 -40.5t33.5 -36.5t72.5 -29.5t119.5 -10.5q88 0 143.5 11.5t84 37t38.5 56.5t10 80v169h-12q-67 -70 -173.5 -108.5t-239.5 -38.5q-291 0 -456.5 134t-165.5 389t165.5 388.5t456.5 133.5q135 0 244.5 -40t176.5 -116h13v127zM818 407q147 0 220 55t73 151
t-73 150.5t-220 54.5q-141 0 -211.5 -53.5t-70.5 -151.5t71 -152t211 -54z" />
    <glyph glyph-name="Gbreve" unicode="&#x11e;" horiz-adv-x="2031" 
d="M1511 1901q-3 -83 -47 -148.5t-115 -104.5t-155 -59.5t-173 -20.5t-172.5 20.5t-154.5 59.5t-115 104.5t-47 148.5h361q11 -86 128 -86q116 0 127 86h363zM1935 816v-816h-333v158q-199 -206 -565 -206q-228 0 -406.5 47t-306 142t-194.5 244t-67 346q0 196 67 345.5
t192.5 244t301 142t397.5 47.5q431 0 661.5 -150t246.5 -406h-553q-54 176 -355 176q-219 0 -329.5 -104.5t-110.5 -294.5q0 -201 112.5 -307t343.5 -106q99 0 176.5 23t117.5 56t60 63.5t20 52.5h-339v303h863z" />
    <glyph glyph-name="gbreve" unicode="&#x11f;" horiz-adv-x="1658" 
d="M1299 1537q-2 -67 -32 -123t-78 -94.5t-111.5 -65t-131.5 -39t-138 -12.5q-89 0 -172.5 20.5t-154.5 60t-115 105t-47 148.5h362q11 -87 127 -87q117 0 128 87h363zM1111 1106h454v-1038q0 -67 -7 -117.5t-27 -101.5t-54 -87.5t-89.5 -68.5t-133 -52t-185 -31t-243.5 -11
q-130 0 -236 12t-180.5 32t-131.5 51t-91.5 63.5t-57 75.5t-32 81.5t-13.5 85.5h503q4 -23 13.5 -40.5t33.5 -36.5t72.5 -29.5t119.5 -10.5q88 0 143.5 11.5t84 37t38.5 56.5t10 80v169h-12q-67 -70 -173.5 -108.5t-239.5 -38.5q-291 0 -456.5 134t-165.5 389t165.5 388.5
t456.5 133.5q135 0 244.5 -40t176.5 -116h13v127zM818 407q147 0 220 55t73 151t-73 150.5t-220 54.5q-141 0 -211.5 -53.5t-70.5 -151.5t71 -152t211 -54z" />
    <glyph glyph-name="Gdotaccent" unicode="&#x120;" horiz-adv-x="2031" 
d="M785 1594v254h471v-254h-471zM1935 816v-816h-333v158q-199 -206 -565 -206q-228 0 -406.5 47t-306 142t-194.5 244t-67 346q0 196 67 345.5t192.5 244t301 142t397.5 47.5q431 0 661.5 -150t246.5 -406h-553q-54 176 -355 176q-219 0 -329.5 -104.5t-110.5 -294.5
q0 -201 112.5 -307t343.5 -106q99 0 176.5 23t117.5 56t60 63.5t20 52.5h-339v303h863z" />
    <glyph glyph-name="gdotaccent" unicode="&#x121;" horiz-adv-x="1658" 
d="M574 1237v254h472v-254h-472zM1111 1106h454v-1038q0 -67 -7 -117.5t-27 -101.5t-54 -87.5t-89.5 -68.5t-133 -52t-185 -31t-243.5 -11q-130 0 -236 12t-180.5 32t-131.5 51t-91.5 63.5t-57 75.5t-32 81.5t-13.5 85.5h503q4 -23 13.5 -40.5t33.5 -36.5t72.5 -29.5
t119.5 -10.5q88 0 143.5 11.5t84 37t38.5 56.5t10 80v169h-12q-67 -70 -173.5 -108.5t-239.5 -38.5q-291 0 -456.5 134t-165.5 389t165.5 388.5t456.5 133.5q135 0 244.5 -40t176.5 -116h13v127zM818 407q147 0 220 55t73 151t-73 150.5t-220 54.5q-141 0 -211.5 -53.5
t-70.5 -151.5t71 -152t211 -54z" />
    <glyph glyph-name="Gcommaaccent" unicode="&#x122;" horiz-adv-x="2031" 
d="M1935 816v-816h-333v158q-199 -206 -565 -206q-228 0 -406.5 47t-306 142t-194.5 244t-67 346q0 196 67 345.5t192.5 244t301 142t397.5 47.5q431 0 661.5 -150t246.5 -406h-553q-54 176 -355 176q-219 0 -329.5 -104.5t-110.5 -294.5q0 -201 112.5 -307t343.5 -106
q99 0 176.5 23t117.5 56t60 63.5t20 52.5h-339v303h863zM1272 -125v-190q0 -48 -3 -79t-13.5 -64.5t-31 -53t-54 -38.5t-84 -28.5t-121 -15t-164.5 -5.5v118q71 0 115.5 7.5t63.5 23.5t24 31t5 40h-208v254h471z" />
    <glyph glyph-name="gcommaaccent" unicode="&#x123;" horiz-adv-x="1658" 
d="M574 1237v160q0 107 26 176.5t86 110.5t145 57.5t215 16.5v-118q-116 0 -162 -38.5t-46 -110.5h208v-254h-472zM1111 1106h454v-1038q0 -67 -7 -117.5t-27 -101.5t-54 -87.5t-89.5 -68.5t-133 -52t-185 -31t-243.5 -11q-130 0 -236 12t-180.5 32t-131.5 51t-91.5 63.5
t-57 75.5t-32 81.5t-13.5 85.5h503q4 -23 13.5 -40.5t33.5 -36.5t72.5 -29.5t119.5 -10.5q88 0 143.5 11.5t84 37t38.5 56.5t10 80v169h-12q-67 -70 -173.5 -108.5t-239.5 -38.5q-291 0 -456.5 134t-165.5 389t165.5 388.5t456.5 133.5q135 0 244.5 -40t176.5 -116h13v127z
M818 407q147 0 220 55t73 151t-73 150.5t-220 54.5q-141 0 -211.5 -53.5t-70.5 -151.5t71 -152t211 -54z" />
    <glyph glyph-name="Hcircumflex" unicode="&#x124;" horiz-adv-x="1906" 
d="M1075 1592l-115 145h-12l-115 -145h-469l269 301h643l268 -301h-469zM1328 1462h471v-1462h-471v562l-749 -2v-560h-471v1462h471v-531h749v531z" />
    <glyph glyph-name="hcircumflex" unicode="&#x125;" horiz-adv-x="1632" 
d="M446 1592l-115 145h-12l-115 -145h-469l269 301h643l268 -301h-469zM1043 1135q227 0 361 -108.5t134 -323.5v-703h-463v562q0 212 -231 212q-54 0 -101.5 -13t-91 -42.5t-69 -86t-25.5 -135.5v-497h-463v1483h463v-515h12q179 167 474 167z" />
    <glyph glyph-name="Hbar" unicode="&#x126;" horiz-adv-x="1982" 
d="M1987 1324v-260h-150v-1064h-471v560h-750v-560h-471v1064h-150v260h150v138h471v-138h750v138h471v-138h150zM1366 931v133h-750v-133h750z" />
    <glyph glyph-name="hbar" unicode="&#x127;" horiz-adv-x="1679" 
d="M1091 1135q227 0 361 -108.5t134 -323.5v-703h-463v562q0 212 -232 212q-54 0 -101.5 -13t-91 -42.5t-69 -86t-25.5 -135.5v-497h-463v1174h-150v208h150v101h463v-101h275v-208h-275v-206h12q179 167 475 167z" />
    <glyph glyph-name="Itilde" unicode="&#x128;" horiz-adv-x="686" 
d="M561 1555q-58 0 -139 23.5t-151 47.5t-103 24q-38 0 -51.5 -16t-15.5 -57h-301q0 86 29 154.5t76.5 108.5t102.5 61t111 21q59 0 141 -24t152.5 -47.5t103.5 -23.5q38 0 51.5 16t15.5 57h301q0 -86 -30 -154.5t-78 -108.5t-103.5 -61t-111.5 -21zM579 0h-471v1462h471
v-1462z" />
    <glyph glyph-name="itilde" unicode="&#x129;" horiz-adv-x="651" 
d="M545 1193q-58 0 -139 23.5t-151 47.5t-103 24q-38 0 -51.5 -16t-15.5 -56h-301q0 69 19.5 127.5t51.5 97.5t73.5 66.5t86 40t88.5 12.5q59 0 141 -24t152.5 -47.5t103.5 -23.5q38 0 51.5 16t15.5 57h301q0 -86 -30 -154.5t-78 -108.5t-103.5 -61t-111.5 -21zM94 0v1106
h463v-1106h-463z" />
    <glyph glyph-name="Imacron" unicode="&#x12a;" horiz-adv-x="686" 
d="M834 1597h-981v251h981v-251zM579 0h-471v1462h471v-1462z" />
    <glyph glyph-name="imacron" unicode="&#x12b;" horiz-adv-x="651" 
d="M816 1253h-981v250h981v-250zM94 0v1106h463v-1106h-463z" />
    <glyph glyph-name="Ibreve" unicode="&#x12c;" horiz-adv-x="686" 
d="M834 1901q-3 -83 -47 -148.5t-115.5 -104.5t-155.5 -59.5t-173 -20.5t-172.5 20.5t-154.5 59.5t-115 104.5t-47 148.5h362q11 -86 127 -86q117 0 128 86h363zM579 0h-471v1462h471v-1462z" />
    <glyph glyph-name="ibreve" unicode="&#x12d;" horiz-adv-x="651" 
d="M814 1537q-2 -67 -32 -123t-78 -94.5t-111.5 -65t-131.5 -39t-138 -12.5q-89 0 -172.5 20.5t-154 60t-114.5 105t-47 148.5h361q11 -87 127 -87q117 0 128 87h363zM94 0v1106h463v-1106h-463z" />
    <glyph glyph-name="Iogonek" unicode="&#x12e;" horiz-adv-x="686" 
d="M579 0q-104 -33 -167 -88.5t-63 -104.5q0 -40 30 -58.5t77 -18.5q44 0 123 17v-222q-83 -19 -213 -19q-204 0 -306 60t-102 169q0 80 72 151.5t185 113.5h-107v1462h471v-1462z" />
    <glyph glyph-name="iogonek" unicode="&#x12f;" horiz-adv-x="651" 
d="M90 1491h471v-254h-471v254zM94 0v1106h463v-1106q-104 -33 -167 -88.5t-63 -104.5q0 -40 30.5 -58.5t78.5 -18.5q42 0 121 17v-222q-83 -19 -213 -19q-204 0 -305 60t-101 169q0 80 71.5 151.5t183.5 113.5h-99z" />
    <glyph glyph-name="Idotaccent" unicode="&#x130;" horiz-adv-x="686" 
d="M108 1594v254h471v-254h-471zM579 0h-471v1462h471v-1462z" />
    <glyph glyph-name="dotlessi" unicode="&#x131;" horiz-adv-x="651" 
d="M94 0v1106h463v-1106h-463z" />
    <glyph glyph-name="IJ" unicode="&#x132;" horiz-adv-x="2422" 
d="M579 0h-471v1462h471v-1462zM2316 1462v-819q0 -162 -38 -282.5t-105 -197.5t-169.5 -124.5t-219 -66t-266.5 -18.5q-151 0 -266.5 18.5t-216.5 65.5t-166 124.5t-102 198t-37 282.5v94h471v-101q0 -165 83 -233t234 -68q73 0 129.5 14.5t102.5 47.5t70.5 93.5
t24.5 145.5v826h471z" />
    <glyph glyph-name="ij" unicode="&#x133;" horiz-adv-x="1300" 
d="M90 1237v254h471v-254h-471zM740 1237v254h471v-254h-471zM94 0v1106h463v-1106h-463zM660 -39q42 0 63 19t21 71v1055h463v-1174q0 -101 -21.5 -163.5t-77.5 -101.5t-141 -53.5t-223 -14.5q-113 0 -178 7v357q6 0 38.5 -1t55.5 -1z" />
    <glyph glyph-name="Jcircumflex" unicode="&#x134;" horiz-adv-x="1736" 
d="M1515 1592l-114 145h-13l-114 -145h-470l269 301h643l269 -301h-470zM1630 1462v-819q0 -162 -38 -282.5t-105 -197.5t-169.5 -124.5t-219 -66t-266.5 -18.5q-151 0 -266.5 18.5t-216.5 65.5t-166 124.5t-102 198t-37 282.5v94h471v-101q0 -165 83 -233t234 -68
q73 0 129.5 14.5t102.5 47.5t70.5 93.5t24.5 145.5v826h471z" />
    <glyph glyph-name="jcircumflex" unicode="&#x135;" horiz-adv-x="651" 
d="M446 1230l-115 145h-12l-115 -145h-469l269 301h643l268 -301h-469zM10 -39q42 0 63 19t21 71v1055h463v-1174q0 -81 -14.5 -136.5t-46 -94.5t-87.5 -61t-131 -31.5t-185 -9.5q-112 0 -177 7v357q6 0 38.5 -1t55.5 -1z" />
    <glyph glyph-name="Kcommaaccent" unicode="&#x136;" horiz-adv-x="1878" 
d="M1207 945l676 -945h-570l-446 644l-288 -255v-389h-471v1462h471v-586l631 586h578zM1182 -125v-190q0 -48 -3 -79t-13.5 -64.5t-31 -53t-54 -38.5t-84 -28.5t-121 -15t-164.5 -5.5v118q71 0 115.5 7.5t63.5 23.5t24 31t5 40h-208v254h471z" />
    <glyph glyph-name="kcommaaccent" unicode="&#x137;" horiz-adv-x="1538" 
d="M1000 673l541 -673h-550l-296 401l-138 -123v-278h-463v1483h463v-752l403 375h531zM1009 -125v-190q0 -48 -3 -79t-13.5 -64.5t-31 -53t-54 -38.5t-84 -28.5t-121 -15t-164.5 -5.5v118q71 0 115.5 7.5t63.5 23.5t24 31t5 40h-208v254h471z" />
    <glyph glyph-name="kgreenlandic" unicode="&#x138;" horiz-adv-x="1538" 
d="M1000 673l541 -673h-550l-296 401l-138 -123v-278h-463v1106h463v-375l403 375h531z" />
    <glyph glyph-name="Lacute" unicode="&#x139;" horiz-adv-x="1634" 
d="M944 1895l-391 -303h-395l164 303h622zM1578 0h-1470v1462h471v-1093h999v-369z" />
    <glyph glyph-name="lacute" unicode="&#x13a;" horiz-adv-x="651" 
d="M926 1895l-391 -303h-395l164 303h622zM94 0v1483h463v-1483h-463z" />
    <glyph glyph-name="Lcommaaccent" unicode="&#x13b;" horiz-adv-x="1634" 
d="M1578 0h-1470v1462h471v-1093h999v-369zM1080 -125v-190q0 -48 -3 -79t-13.5 -64.5t-31 -53t-54 -38.5t-84 -28.5t-121 -15t-164.5 -5.5v118q71 0 115.5 7.5t63 23.5t23.5 31t5 40h-207v254h471z" />
    <glyph glyph-name="lcommaaccent" unicode="&#x13c;" horiz-adv-x="651" 
d="M94 0v1483h463v-1483h-463zM561 -125v-190q0 -48 -3 -79t-13.5 -64.5t-31 -53t-54 -38.5t-84 -28.5t-121 -15t-164.5 -5.5v118q71 0 115.5 7.5t63 23.5t23.5 31t5 40h-207v254h471z" />
    <glyph glyph-name="Lcaron" unicode="&#x13d;" horiz-adv-x="1634" 
d="M1322 1483v-263q0 -243 -108 -345.5t-352 -102.5v144q111 0 159.5 59t48.5 151h-208v357h460zM1578 0h-1470v1462h471v-1093h999v-369z" />
    <glyph glyph-name="lcaron" unicode="&#x13e;" horiz-adv-x="1054" 
d="M94 0v1483h463v-1483h-463zM1030 1483v-178q0 -192 -88 -278t-294 -86v139q100 0 139 31t39 104h-178v268h382z" />
    <glyph glyph-name="Ldot" unicode="&#x13f;" horiz-adv-x="1634" 
d="M1578 0h-1470v1462h472v-1095h998v-367zM1113 562q-107 0 -181.5 74.5t-74.5 181.5t74.5 181.5t181.5 74.5t181.5 -74.5t74.5 -181.5t-74.5 -181.5t-181.5 -74.5z" />
    <glyph glyph-name="ldot" unicode="&#x140;" horiz-adv-x="1222" 
d="M94 0v1483h463v-1483h-463zM912 482q-107 0 -181.5 74.5t-74.5 181.5t74.5 181.5t181.5 74.5t181.5 -74.5t74.5 -181.5t-74.5 -181.5t-181.5 -74.5z" />
    <glyph glyph-name="Lslash" unicode="&#x141;" horiz-adv-x="1644" 
d="M590 369h1000v-369h-1471v389l-95 -39v343l95 39v730h471v-540l595 240v-342l-595 -240v-211z" />
    <glyph glyph-name="lslash" unicode="&#x142;" horiz-adv-x="825" 
d="M787 1115v-297l-143 -58v-760h-463v574l-144 -58v296l144 58v613h463v-427z" />
    <glyph glyph-name="Nacute" unicode="&#x143;" horiz-adv-x="1906" 
d="M1555 1895l-391 -303h-395l164 303h622zM1350 1462h449v-1462h-541l-690 900h-12v-900h-448v1462h556l674 -880h12v880z" />
    <glyph glyph-name="nacute" unicode="&#x144;" horiz-adv-x="1632" 
d="M1396 1533l-391 -303h-395l164 303h622zM548 1106v-138h12q190 167 483 167q227 0 361 -108.5t134 -323.5v-703h-463v562q0 212 -231 212q-54 0 -101.5 -13t-91 -42.5t-69 -86t-25.5 -135.5v-497h-463v1106h454z" />
    <glyph glyph-name="Ncommaaccent" unicode="&#x145;" horiz-adv-x="1906" 
d="M1350 1462h449v-1462h-541l-690 900h-12v-900h-448v1462h556l674 -880h12v880zM1190 -125v-190q0 -48 -3 -79t-13.5 -64.5t-31 -53t-54 -38.5t-84 -28.5t-121 -15t-164.5 -5.5v118q71 0 115.5 7.5t63 23.5t23.5 31t5 40h-207v254h471z" />
    <glyph glyph-name="ncommaaccent" unicode="&#x146;" horiz-adv-x="1632" 
d="M548 1106v-138h12q190 167 483 167q227 0 361 -108.5t134 -323.5v-703h-463v562q0 212 -231 212q-54 0 -101.5 -13t-91 -42.5t-69 -86t-25.5 -135.5v-497h-463v1106h454zM1051 -125v-190q0 -48 -3 -79t-13.5 -64.5t-31 -53t-54 -38.5t-84 -28.5t-121 -15t-164.5 -5.5v118
q71 0 115.5 7.5t63.5 23.5t24 31t5 40h-208v254h471z" />
    <glyph glyph-name="Ncaron" unicode="&#x147;" horiz-adv-x="1906" 
d="M1075 1895h469l-268 -301h-643l-269 301h469l115 -145h12zM1350 1462h449v-1462h-541l-690 900h-12v-900h-448v1462h556l674 -880h12v880z" />
    <glyph glyph-name="ncaron" unicode="&#x148;" horiz-adv-x="1632" 
d="M937 1531h469l-269 -301h-643l-268 301h469l115 -146h12zM548 1106v-138h12q190 167 483 167q227 0 361 -108.5t134 -323.5v-703h-463v562q0 212 -231 212q-54 0 -101.5 -13t-91 -42.5t-69 -86t-25.5 -135.5v-497h-463v1106h454z" />
    <glyph glyph-name="napostrophe" unicode="&#x149;" horiz-adv-x="2054" 
d="M441 1483v-178q0 -192 -88 -278t-294 -86v139q100 0 139 31t39 104h-178v268h382zM970 1106v-138h12q190 167 483 167q227 0 361 -108.5t134 -323.5v-703h-463v562q0 212 -232 212q-54 0 -101.5 -13t-91 -42.5t-69 -86t-25.5 -135.5v-497h-463v1106h455z" />
    <glyph glyph-name="Eng" unicode="&#x14a;" horiz-adv-x="1906" 
d="M1350 1462h449v-1451q0 -208 -142.5 -311.5t-458.5 -103.5q-602 0 -602 405q0 23 2 38h426v-30q0 -46 40 -74t123 -28q138 0 160 76l-779 925h-12v-908h-448v1462h556l674 -801h12v801z" />
    <glyph glyph-name="eng" unicode="&#x14b;" horiz-adv-x="1632" 
d="M1043 1135q227 0 361 -108.5t134 -323.5v-771q0 -101 -21.5 -163.5t-77.5 -101.5t-141 -53.5t-223 -14.5q-113 0 -178 7v357q6 0 39 -1t56 -1q42 0 62.5 18.5t20.5 71.5v511q0 212 -231 212q-54 0 -101.5 -13t-91 -42.5t-69 -86t-25.5 -135.5v-497h-463v1106h454v-138h12
q190 167 483 167z" />
    <glyph glyph-name="Omacron" unicode="&#x14c;" horiz-adv-x="2050" 
d="M1516 1597h-981v251h981v-251zM1025 1510q224 0 400 -47.5t302 -142t193 -243.5t67 -346t-67 -346t-193 -243.5t-302 -142t-400 -47.5t-400 47.5t-302 142t-193 243.5t-67 346t67 346t193 243.5t302 142t400 47.5zM1025 333q222 0 333 104t111 294t-111 294.5t-333 104.5
t-333 -104.5t-111 -294.5t111 -294t333 -104z" />
    <glyph glyph-name="omacron" unicode="&#x14d;" 
d="M1321 1253h-981v250h981v-250zM830 1152q388 0 582 -155.5t194 -443.5q0 -289 -194 -444t-582 -155t-581.5 155t-193.5 444q0 288 193.5 443.5t581.5 155.5zM830 281q147 0 221 71.5t74 200.5t-74 200.5t-221 71.5t-220.5 -71.5t-73.5 -200.5t73.5 -200.5t220.5 -71.5z
" />
    <glyph glyph-name="Obreve" unicode="&#x14e;" horiz-adv-x="2050" 
d="M1516 1901q-3 -83 -47 -148.5t-115.5 -104.5t-155.5 -59.5t-173 -20.5t-172.5 20.5t-154.5 59.5t-115 104.5t-47 148.5h362q11 -86 127 -86q117 0 128 86h363zM1025 1510q224 0 400 -47.5t302 -142t193 -243.5t67 -346t-67 -346t-193 -243.5t-302 -142t-400 -47.5
t-400 47.5t-302 142t-193 243.5t-67 346t67 346t193 243.5t302 142t400 47.5zM1025 333q222 0 333 104t111 294t-111 294.5t-333 104.5t-333 -104.5t-111 -294.5t111 -294t333 -104z" />
    <glyph glyph-name="obreve" unicode="&#x14f;" 
d="M1319 1537q-2 -67 -31.5 -123t-78 -94.5t-111.5 -65t-131 -39t-138 -12.5q-89 0 -172.5 20.5t-154.5 60t-115 105t-47 148.5h361q11 -87 128 -87q116 0 127 87h363zM830 1152q388 0 582 -155.5t194 -443.5q0 -289 -194 -444t-582 -155t-581.5 155t-193.5 444
q0 288 193.5 443.5t581.5 155.5zM830 281q147 0 221 71.5t74 200.5t-74 200.5t-221 71.5t-220.5 -71.5t-73.5 -200.5t73.5 -200.5t220.5 -71.5z" />
    <glyph glyph-name="Ohungarumlaut" unicode="&#x150;" horiz-adv-x="2050" 
d="M1180 1895l-267 -303h-371l152 303h486zM1773 1895l-267 -303h-371l152 303h486zM1025 1510q224 0 400 -47.5t302 -142t193 -243.5t67 -346t-67 -346t-193 -243.5t-302 -142t-400 -47.5t-400 47.5t-302 142t-193 243.5t-67 346t67 346t193 243.5t302 142t400 47.5z
M1025 333q222 0 333 104t111 294t-111 294.5t-333 104.5t-333 -104.5t-111 -294.5t111 -294t333 -104z" />
    <glyph glyph-name="ohungarumlaut" unicode="&#x151;" 
d="M985 1533l-267 -303h-370l151 303h486zM1578 1533l-267 -303h-370l151 303h486zM830 1152q388 0 582 -155.5t194 -443.5q0 -289 -194 -444t-582 -155t-581.5 155t-193.5 444q0 288 193.5 443.5t581.5 155.5zM830 281q147 0 221 71.5t74 200.5t-74 200.5t-221 71.5
t-220.5 -71.5t-73.5 -200.5t73.5 -200.5t220.5 -71.5z" />
    <glyph glyph-name="OE" unicode="&#x152;" horiz-adv-x="2920" 
d="M1920 349h922v-349h-1373v137h-12q-77 -88 -216.5 -136.5t-316.5 -48.5q-149 0 -278 29.5t-236.5 91.5t-184.5 153t-119.5 219.5t-42.5 285.5t42.5 285.5t119.5 219.5t184.5 153t236.5 91.5t278 29.5q177 0 316 -48.5t217 -136.5h12v137h1352v-351h-901v-206h858v-323
h-858v-233zM1025 340q211 0 327.5 101.5t116.5 289.5q0 189 -116.5 290.5t-327.5 101.5t-327.5 -101.5t-116.5 -290.5q0 -188 116.5 -289.5t327.5 -101.5z" />
    <glyph glyph-name="oe" unicode="&#x153;" horiz-adv-x="2611" 
d="M2556 553q0 -55 -7 -109h-1021q14 -105 80 -155t191 -50q198 0 245 104h496q-23 -389 -741 -389q-314 0 -493 139q-179 -139 -496 -139q-380 0 -567.5 154.5t-187.5 444.5q0 289 187.5 444t567.5 155q318 0 496 -138q178 138 495 138q380 0 567.5 -155t187.5 -444z
M1801 868q-111 0 -175.5 -39t-87.5 -121h526q-23 82 -87.5 121t-175.5 39zM810 281q138 0 206 71.5t68 200.5t-68 200.5t-206 71.5t-206 -71.5t-68 -200.5t68 -200.5t206 -71.5z" />
    <glyph glyph-name="Racute" unicode="&#x154;" horiz-adv-x="1863" 
d="M1524 1893l-391 -303h-395l164 303h622zM1487 554l351 -554h-536l-281 471h-442v-471h-471v1462h1116q305 0 440.5 -119.5t135.5 -360.5q0 -185 -80.5 -279t-232.5 -132v-17zM1113 804q85 0 123.5 35t38.5 106t-38 106t-124 35h-534v-282h534z" />
    <glyph glyph-name="racute" unicode="&#x155;" horiz-adv-x="1187" 
d="M1201 1533l-391 -303h-395l164 303h622zM94 1106h454v-148h12q87 93 208.5 135t291.5 42q49 0 85 -6v-442q-97 22 -198 22q-64 0 -116 -7t-105 -27.5t-88.5 -54t-58 -90t-22.5 -132.5v-398h-463v1106z" />
    <glyph glyph-name="Rcommaaccent" unicode="&#x156;" horiz-adv-x="1863" 
d="M1487 554l351 -554h-536l-281 471h-442v-471h-471v1462h1116q305 0 440.5 -119.5t135.5 -360.5q0 -185 -80.5 -279t-232.5 -132v-17zM1113 804q85 0 123.5 35t38.5 106t-38 106t-124 35h-534v-282h534zM1176 -125v-190q0 -48 -3 -79t-13.5 -64.5t-31 -53t-54 -38.5
t-84 -28.5t-121 -15t-164.5 -5.5v118q71 0 115.5 7.5t63 23.5t23.5 31t5 40h-207v254h471z" />
    <glyph glyph-name="rcommaaccent" unicode="&#x157;" horiz-adv-x="1187" 
d="M94 1106h454v-148h12q87 93 208.5 135t291.5 42q49 0 85 -6v-442q-97 22 -198 22q-64 0 -116 -7t-105 -27.5t-88.5 -54t-58 -90t-22.5 -132.5v-398h-463v1106zM561 -125v-190q0 -48 -3 -79t-13.5 -64.5t-31 -53t-54 -38.5t-84 -28.5t-121 -15t-164.5 -5.5v118
q71 0 115.5 7.5t63 23.5t23.5 31t5 40h-207v254h471z" />
    <glyph glyph-name="Rcaron" unicode="&#x158;" horiz-adv-x="1863" 
d="M1044 1893h470l-269 -301h-643l-269 301h470l114 -145h13zM1487 554l351 -554h-536l-281 471h-442v-471h-471v1462h1116q305 0 440.5 -119.5t135.5 -360.5q0 -185 -80.5 -279t-232.5 -132v-17zM1113 804q85 0 123.5 35t38.5 106t-38 106t-124 35h-534v-282h534z" />
    <glyph glyph-name="rcaron" unicode="&#x159;" horiz-adv-x="1187" 
d="M741 1531h470l-269 -301h-643l-269 301h470l114 -146h13zM94 1106h454v-148h12q87 93 208.5 135t291.5 42q49 0 85 -6v-442q-97 22 -198 22q-64 0 -116 -7t-105 -27.5t-88.5 -54t-58 -90t-22.5 -132.5v-398h-463v1106z" />
    <glyph glyph-name="Sacute" unicode="&#x15a;" horiz-adv-x="1832" 
d="M1490 1895l-391 -303h-396l165 303h622zM1188 1024q-7 88 -87.5 126t-227.5 38q-267 0 -267 -121q0 -52 41 -77.5t127 -34.5l510 -57q247 -28 370.5 -136t123.5 -316q0 -86 -21 -155.5t-58.5 -120.5t-97 -89t-130 -62.5t-164 -39.5t-192 -21t-221.5 -6q-165 0 -288.5 13
t-233.5 48.5t-181 95t-114 154t-48 224.5h541q4 -51 22 -87.5t46.5 -59t72.5 -35.5t91 -17.5t111 -4.5q158 0 232 32t74 98q0 61 -50 90.5t-147 41.5l-457 56q-248 30 -374 131.5t-126 305.5q0 109 41 191.5t111.5 135.5t176.5 86t225.5 46t269.5 13q149 0 267.5 -13
t225.5 -46.5t179.5 -87.5t116.5 -139.5t49 -199.5h-539z" />
    <glyph glyph-name="sacute" unicode="&#x15b;" horiz-adv-x="1593" 
d="M1339 1533l-391 -303h-395l164 303h622zM1002 781q-11 104 -249 104q-100 0 -147.5 -20.5t-47.5 -54.5q0 -31 24.5 -45t91.5 -22l427 -46q231 -25 333.5 -102.5t102.5 -257.5q0 -91 -32.5 -158t-92 -110t-155 -69t-208 -36t-265.5 -10q-141 0 -247 9.5t-203 35.5
t-159.5 70t-101 114.5t-42.5 166.5h509q6 -69 63.5 -96t190.5 -27q130 0 181 22.5t51 62.5q0 35 -27 50.5t-96 24.5l-390 50q-114 14 -192 36t-138.5 61t-89.5 100t-29 148t35 152t94.5 106t149.5 66.5t190 35.5t226 10q163 0 288.5 -18t227.5 -59t158 -115t61 -179h-492z
" />
    <glyph glyph-name="Scircumflex" unicode="&#x15c;" horiz-adv-x="1832" 
d="M1010 1592l-115 145h-12l-115 -145h-470l269 301h643l269 -301h-469zM1188 1024q-7 88 -87.5 126t-227.5 38q-267 0 -267 -121q0 -52 41 -77.5t127 -34.5l510 -57q247 -28 370.5 -136t123.5 -316q0 -86 -21 -155.5t-58.5 -120.5t-97 -89t-130 -62.5t-164 -39.5t-192 -21
t-221.5 -6q-165 0 -288.5 13t-233.5 48.5t-181 95t-114 154t-48 224.5h541q4 -51 22 -87.5t46.5 -59t72.5 -35.5t91 -17.5t111 -4.5q158 0 232 32t74 98q0 61 -50 90.5t-147 41.5l-457 56q-248 30 -374 131.5t-126 305.5q0 109 41 191.5t111.5 135.5t176.5 86t225.5 46
t269.5 13q149 0 267.5 -13t225.5 -46.5t179.5 -87.5t116.5 -139.5t49 -199.5h-539z" />
    <glyph glyph-name="scircumflex" unicode="&#x15d;" horiz-adv-x="1593" 
d="M879 1230l-114 145h-13l-114 -145h-470l269 301h643l269 -301h-470zM1002 781q-11 104 -249 104q-100 0 -147.5 -20.5t-47.5 -54.5q0 -31 24.5 -45t91.5 -22l427 -46q231 -25 333.5 -102.5t102.5 -257.5q0 -91 -32.5 -158t-92 -110t-155 -69t-208 -36t-265.5 -10
q-141 0 -247 9.5t-203 35.5t-159.5 70t-101 114.5t-42.5 166.5h509q6 -69 63.5 -96t190.5 -27q130 0 181 22.5t51 62.5q0 35 -27 50.5t-96 24.5l-390 50q-114 14 -192 36t-138.5 61t-89.5 100t-29 148t35 152t94.5 106t149.5 66.5t190 35.5t226 10q163 0 288.5 -18
t227.5 -59t158 -115t61 -179h-492z" />
    <glyph glyph-name="Scedilla" unicode="&#x15e;" horiz-adv-x="1832" 
d="M1778 446q0 -112 -35 -195.5t-97.5 -138t-161 -89t-212.5 -50t-265 -19.5l-44 -56q20 4 51 4q166 0 241.5 -46.5t75.5 -154.5q0 -122 -97.5 -171.5t-325.5 -49.5q-174 0 -307 37v168h12q86 -27 140.5 -35.5t138.5 -8.5q60 0 90.5 12.5t30.5 45.5t-30.5 45.5t-90.5 12.5
q-103 0 -169 -16h-12v102l88 111q-146 4 -257.5 20.5t-208.5 54t-160 96.5t-101 149.5t-43 212.5h541q4 -51 22 -87.5t46.5 -59t72.5 -35.5t91 -17.5t111 -4.5q158 0 232 32t74 98q0 61 -50 90.5t-147 41.5l-457 56q-248 30 -374 131.5t-126 305.5q0 109 41 191.5
t111.5 135.5t176.5 86t225.5 46t269.5 13q149 0 267.5 -13t225.5 -46.5t179.5 -87.5t116.5 -139.5t49 -199.5h-539q-7 88 -87.5 126t-227.5 38q-267 0 -267 -121q0 -52 41 -77.5t127 -34.5l510 -57q247 -28 370.5 -136t123.5 -316z" />
    <glyph glyph-name="scedilla" unicode="&#x15f;" horiz-adv-x="1593" 
d="M1537 337q0 -84 -27.5 -147.5t-78 -106t-130.5 -70t-177 -40.5t-225 -17l-47 -58q20 4 51 4q166 0 241.5 -46.5t75.5 -154.5q0 -122 -97.5 -171.5t-325.5 -49.5q-175 0 -308 37v168h13q86 -27 140.5 -35.5t138.5 -8.5q60 0 90.5 12.5t30.5 45.5t-30.5 45.5t-90.5 12.5
q-103 0 -169 -16h-12v102l92 113q-123 3 -217.5 15.5t-178.5 40t-139.5 71t-88.5 110.5t-37 157h509q6 -69 63.5 -96t190.5 -27q130 0 181 22.5t51 62.5q0 35 -27 50.5t-96 24.5l-390 50q-114 14 -192 36t-138.5 61t-89.5 100t-29 148t35 152t94.5 106t149.5 66.5t190 35.5
t226 10q163 0 288.5 -18t227.5 -59t158 -115t61 -179h-492q-11 104 -249 104q-100 0 -147.5 -20.5t-47.5 -54.5q0 -31 24.5 -45t91.5 -22l427 -46q231 -25 333.5 -102.5t102.5 -257.5z" />
    <glyph glyph-name="Scaron" unicode="&#x160;" horiz-adv-x="1832" 
d="M1010 1895h469l-269 -301h-643l-269 301h470l115 -145h12zM1188 1024q-7 88 -87.5 126t-227.5 38q-267 0 -267 -121q0 -52 41 -77.5t127 -34.5l510 -57q247 -28 370.5 -136t123.5 -316q0 -86 -21 -155.5t-58.5 -120.5t-97 -89t-130 -62.5t-164 -39.5t-192 -21t-221.5 -6
q-165 0 -288.5 13t-233.5 48.5t-181 95t-114 154t-48 224.5h541q4 -51 22 -87.5t46.5 -59t72.5 -35.5t91 -17.5t111 -4.5q158 0 232 32t74 98q0 61 -50 90.5t-147 41.5l-457 56q-248 30 -374 131.5t-126 305.5q0 109 41 191.5t111.5 135.5t176.5 86t225.5 46t269.5 13
q149 0 267.5 -13t225.5 -46.5t179.5 -87.5t116.5 -139.5t49 -199.5h-539z" />
    <glyph glyph-name="scaron" unicode="&#x161;" horiz-adv-x="1593" 
d="M879 1531h470l-269 -301h-643l-269 301h470l114 -146h13zM1002 781q-11 104 -249 104q-100 0 -147.5 -20.5t-47.5 -54.5q0 -31 24.5 -45t91.5 -22l427 -46q231 -25 333.5 -102.5t102.5 -257.5q0 -91 -32.5 -158t-92 -110t-155 -69t-208 -36t-265.5 -10q-141 0 -247 9.5
t-203 35.5t-159.5 70t-101 114.5t-42.5 166.5h509q6 -69 63.5 -96t190.5 -27q130 0 181 22.5t51 62.5q0 35 -27 50.5t-96 24.5l-390 50q-114 14 -192 36t-138.5 61t-89.5 100t-29 148t35 152t94.5 106t149.5 66.5t190 35.5t226 10q163 0 288.5 -18t227.5 -59t158 -115
t61 -179h-492z" />
    <glyph glyph-name="uni0162" unicode="&#x162;" 
d="M1066 0h-112l-83 -102q20 4 51 4q166 0 241.5 -46.5t75.5 -154.5q0 -122 -97.5 -171.5t-325.5 -49.5q-174 0 -307 37v168h12q86 -27 140.5 -35.5t138.5 -8.5q61 0 91 12.5t30 45.5t-30 45.5t-91 12.5q-102 0 -168 -16h-13v102l128 157h-152v1089h-553v373h1578v-373h-554
v-1089z" />
    <glyph glyph-name="uni0163" unicode="&#x163;" horiz-adv-x="1005" 
d="M674 -98q166 0 241.5 -46.5t75.5 -154.5q0 -122 -97.5 -171.5t-325.5 -49.5q-175 0 -308 37v168h12q86 -27 140.5 -35.5t138.5 -8.5q60 0 90.5 12.5t30.5 45.5t-30.5 45.5t-90.5 12.5q-102 0 -168 -16h-12v102l121 149q-165 24 -231 104t-66 246v497h-182v267h182v299
h462v-299h285v-267h-285v-410q0 -48 33.5 -66.5t102.5 -18.5q107 0 149 3v-347q-120 -15 -251 -18l-68 -84q20 4 51 4z" />
    <glyph glyph-name="Tcaron" unicode="&#x164;" 
d="M952 1895h469l-269 -301h-643l-269 301h470l115 -145h12zM1620 1462v-373h-554v-1089h-471v1089h-553v373h1578z" />
    <glyph glyph-name="tcaron" unicode="&#x165;" horiz-adv-x="1167" 
d="M1140 1743v-177q0 -192 -88 -278t-294 -86v139q100 0 139 31t39 104h-178v267h382zM793 344q107 0 149 3v-347q-150 -18 -271 -18q-184 0 -286.5 35t-146 111.5t-43.5 213.5v497h-182v267h182v299h462v-299h285v-267h-285v-410q0 -48 33.5 -66.5t102.5 -18.5z" />
    <glyph glyph-name="Tbar" unicode="&#x166;" 
d="M1620 1089h-554v-311h286v-310h-286v-468h-471v468h-285v310h285v311h-553v373h1578v-373z" />
    <glyph glyph-name="tbar" unicode="&#x167;" horiz-adv-x="1005" 
d="M942 839h-285v-110h285v-202h-285v-98q0 -48 33.5 -66.5t102.5 -18.5q107 0 149 3v-347q-150 -18 -271 -18q-184 0 -286.5 35t-146 111.5t-43.5 213.5v185h-182v202h182v110h-182v267h182v299h462v-299h285v-267z" />
    <glyph glyph-name="Utilde" unicode="&#x168;" horiz-adv-x="1896" 
d="M1166 1555q-58 0 -139 23.5t-151 47.5t-103 24q-38 0 -51.5 -16t-15.5 -57h-301q0 86 29 154.5t76.5 108.5t102.5 61t111 21q59 0 141 -24t152.5 -47.5t103.5 -23.5q38 0 51.5 16t15.5 57h301q0 -86 -30 -154.5t-78 -108.5t-103.5 -61t-111.5 -21zM1317 1462h471v-827
q0 -133 -26 -237.5t-78.5 -179t-123.5 -126.5t-168 -82t-204 -43t-240 -13t-240 13t-204 43t-168 82t-123.5 126.5t-78.5 179t-26 237.5v827h471v-826q0 -71 17 -123.5t47.5 -86.5t77.5 -55t101.5 -29.5t125.5 -8.5t125.5 8.5t101.5 29.5t77.5 55t47.5 86.5t17 123.5v826z
" />
    <glyph glyph-name="utilde" unicode="&#x169;" horiz-adv-x="1632" 
d="M1036 1193q-58 0 -139 23.5t-151 47.5t-103 24q-38 0 -51.5 -16t-15.5 -56h-302q0 86 29.5 154.5t77 108.5t102.5 60.5t111 20.5q59 0 140.5 -24t152 -47.5t103.5 -23.5q38 0 51.5 16t15.5 57h302q0 -86 -30 -154.5t-78 -108.5t-103.5 -61t-111.5 -21zM1084 0v138h-13
q-190 -167 -483 -167q-226 0 -360 108.5t-134 324.5v702h463v-561q0 -213 231 -213q54 0 101.5 13t91 42.5t69 86t25.5 135.5v497h463v-1106h-454z" />
    <glyph glyph-name="Umacron" unicode="&#x16a;" horiz-adv-x="1896" 
d="M1438 1597h-981v251h981v-251zM1317 1462h471v-827q0 -133 -26 -237.5t-78.5 -179t-123.5 -126.5t-168 -82t-204 -43t-240 -13t-240 13t-204 43t-168 82t-123.5 126.5t-78.5 179t-26 237.5v827h471v-826q0 -71 17 -123.5t47.5 -86.5t77.5 -55t101.5 -29.5t125.5 -8.5
t125.5 8.5t101.5 29.5t77.5 55t47.5 86.5t17 123.5v826z" />
    <glyph glyph-name="umacron" unicode="&#x16b;" horiz-adv-x="1632" 
d="M1306 1253h-981v250h981v-250zM1084 0v138h-13q-190 -167 -483 -167q-226 0 -360 108.5t-134 324.5v702h463v-561q0 -213 231 -213q54 0 101.5 13t91 42.5t69 86t25.5 135.5v497h463v-1106h-454z" />
    <glyph glyph-name="Ubreve" unicode="&#x16c;" horiz-adv-x="1896" 
d="M1438 1901q-3 -83 -47 -148.5t-115 -104.5t-155 -59.5t-173 -20.5t-172.5 20.5t-154.5 59.5t-115 104.5t-47 148.5h361q11 -86 128 -86q116 0 127 86h363zM1317 1462h471v-827q0 -133 -26 -237.5t-78.5 -179t-123.5 -126.5t-168 -82t-204 -43t-240 -13t-240 13t-204 43
t-168 82t-123.5 126.5t-78.5 179t-26 237.5v827h471v-826q0 -71 17 -123.5t47.5 -86.5t77.5 -55t101.5 -29.5t125.5 -8.5t125.5 8.5t101.5 29.5t77.5 55t47.5 86.5t17 123.5v826z" />
    <glyph glyph-name="ubreve" unicode="&#x16d;" horiz-adv-x="1632" 
d="M1305 1537q-2 -67 -32 -123t-78 -94.5t-111.5 -65t-131.5 -39t-138 -12.5q-89 0 -172.5 20.5t-154.5 60t-115 105t-47 148.5h362q11 -87 127 -87q117 0 128 87h363zM1084 0v138h-13q-190 -167 -483 -167q-226 0 -360 108.5t-134 324.5v702h463v-561q0 -213 231 -213
q54 0 101.5 13t91 42.5t69 86t25.5 135.5v497h463v-1106h-454z" />
    <glyph glyph-name="Uring" unicode="&#x16e;" horiz-adv-x="1896" 
d="M950 1519q-154 0 -256 76.5t-102 204.5t102.5 205t255.5 77t255 -77t102 -205t-102 -204.5t-255 -76.5zM950 1703q49 0 82 26.5t33 70.5t-33 70.5t-82 26.5t-82.5 -26.5t-33.5 -70.5t33.5 -70.5t82.5 -26.5zM1317 1462h471v-827q0 -133 -26 -237.5t-78.5 -179
t-123.5 -126.5t-168 -82t-204 -43t-240 -13t-240 13t-204 43t-168 82t-123.5 126.5t-78.5 179t-26 237.5v827h471v-826q0 -71 17 -123.5t47.5 -86.5t77.5 -55t101.5 -29.5t125.5 -8.5t125.5 8.5t101.5 29.5t77.5 55t47.5 86.5t17 123.5v826z" />
    <glyph glyph-name="uring" unicode="&#x16f;" horiz-adv-x="1632" 
d="M816 1203q-153 0 -255.5 77t-102.5 205t102 204.5t256 76.5t256 -76.5t102 -204.5t-102.5 -205t-255.5 -77zM816 1388q49 0 82 26.5t33 70.5t-33 70.5t-82 26.5t-82.5 -26.5t-33.5 -70.5t33.5 -70.5t82.5 -26.5zM1084 0v138h-13q-190 -167 -483 -167q-226 0 -360 108.5
t-134 324.5v702h463v-561q0 -213 231 -213q54 0 101.5 13t91 42.5t69 86t25.5 135.5v497h463v-1106h-454z" />
    <glyph glyph-name="Uhungarumlaut" unicode="&#x170;" horiz-adv-x="1896" 
d="M1103 1895l-267 -303h-371l152 303h486zM1696 1895l-267 -303h-371l152 303h486zM1317 1462h471v-827q0 -133 -26 -237.5t-78.5 -179t-123.5 -126.5t-168 -82t-204 -43t-240 -13t-240 13t-204 43t-168 82t-123.5 126.5t-78.5 179t-26 237.5v827h471v-826q0 -71 17 -123.5
t47.5 -86.5t77.5 -55t101.5 -29.5t125.5 -8.5t125.5 8.5t101.5 29.5t77.5 55t47.5 86.5t17 123.5v826z" />
    <glyph glyph-name="uhungarumlaut" unicode="&#x171;" horiz-adv-x="1632" 
d="M970 1533l-267 -303h-370l152 303h485zM1564 1533l-267 -303h-371l152 303h486zM1084 0v138h-13q-190 -167 -483 -167q-226 0 -360 108.5t-134 324.5v702h463v-561q0 -213 231 -213q54 0 101.5 13t91 42.5t69 86t25.5 135.5v497h463v-1106h-454z" />
    <glyph glyph-name="Uogonek" unicode="&#x172;" horiz-adv-x="1896" 
d="M1317 1462h471v-827q0 -186 -53.5 -317t-147 -205.5t-234.5 -114.5q-103 -33 -164 -87.5t-61 -103.5q0 -40 30 -58.5t77 -18.5q44 0 123 17v-222q-83 -19 -213 -19q-204 0 -306 60t-102 169q0 60 43 117.5t116 101.5q-151 3 -267.5 24t-217 69.5t-165.5 124.5
t-101.5 192.5t-36.5 270.5v827h471v-826q0 -71 17 -123.5t47.5 -86.5t77.5 -55t101.5 -29.5t125.5 -8.5t125.5 8.5t101.5 29.5t77.5 55t47.5 86.5t17 123.5v826z" />
    <glyph glyph-name="uogonek" unicode="&#x173;" horiz-adv-x="1632" 
d="M1538 0q-104 -33 -167 -88.5t-63 -104.5q0 -40 30.5 -58.5t78.5 -18.5q42 0 121 17v-222q-83 -19 -212 -19q-204 0 -305 60t-101 169q0 80 71.5 151.5t183.5 113.5h-91v138h-13q-190 -167 -483 -167q-226 0 -360 108.5t-134 324.5v702h463v-561q0 -213 231 -213
q54 0 101.5 13t91 42.5t69 86t25.5 135.5v497h463v-1106z" />
    <glyph glyph-name="Wcircumflex" unicode="&#x174;" horiz-adv-x="2443" 
d="M1344 1592l-115 145h-12l-115 -145h-469l268 301h643l269 -301h-469zM2023 0h-579l-215 896h-12l-216 -896h-589l-422 1462h520l219 -912h12l220 912h523l219 -912h12l221 912h516z" />
    <glyph glyph-name="wcircumflex" unicode="&#x175;" horiz-adv-x="2359" 
d="M1304 1230l-115 145h-12l-115 -145h-470l269 301h643l269 -301h-469zM2353 1106l-451 -1106h-506l-205 631h-12l-205 -631h-509l-456 1106h514l213 -625h12l203 625h463l213 -623h13l201 623h512z" />
    <glyph glyph-name="Ycircumflex" unicode="&#x176;" horiz-adv-x="1820" 
d="M1032 1592l-115 145h-12l-115 -145h-469l268 301h643l269 -301h-469zM1841 1462l-693 -974v-488h-475v488l-692 974h557l373 -573l372 573h558z" />
    <glyph glyph-name="ycircumflex" unicode="&#x177;" horiz-adv-x="1605" 
d="M923 1230l-115 145h-12l-115 -145h-469l269 301h643l269 -301h-470zM1605 1106l-566 -1125q-43 -85 -78 -141.5t-76.5 -101.5t-83 -70t-101 -41.5t-125 -22t-159.5 -5.5h-238v365h173q84 0 117.5 13t50.5 49l17 35l-537 1045h524l273 -641h12l273 641h524z" />
    <glyph glyph-name="Ydieresis" unicode="&#x178;" horiz-adv-x="1820" 
d="M396 1594v254h424v-254h-424zM1001 1594v254h425v-254h-425zM1841 1462l-693 -974v-488h-475v488l-692 974h557l373 -573l372 573h558z" />
    <glyph glyph-name="Zacute" unicode="&#x179;" horiz-adv-x="1710" 
d="M1473 1895l-391 -303h-396l165 303h622zM1634 1089l-822 -699h822v-390h-1574v373l820 700h-772v389h1526v-373z" />
    <glyph glyph-name="zacute" unicode="&#x17a;" horiz-adv-x="1413" 
d="M1298 1533l-391 -303h-395l164 303h622zM1337 0h-1284v334l609 453h-566v319h1241v-329l-610 -455h610v-322z" />
    <glyph glyph-name="Zdotaccent" unicode="&#x17b;" horiz-adv-x="1710" 
d="M636 1594v254h471v-254h-471zM1634 1089l-822 -699h822v-390h-1574v373l820 700h-772v389h1526v-373z" />
    <glyph glyph-name="zdotaccent" unicode="&#x17c;" horiz-adv-x="1413" 
d="M482 1237v254h471v-254h-471zM1337 0h-1284v334l609 453h-566v319h1241v-329l-610 -455h610v-322z" />
    <glyph glyph-name="Zcaron" unicode="&#x17d;" horiz-adv-x="1710" 
d="M993 1895h469l-269 -301h-643l-269 301h470l115 -145h12zM1634 1089l-822 -699h822v-390h-1574v373l820 700h-772v389h1526v-373z" />
    <glyph glyph-name="zcaron" unicode="&#x17e;" horiz-adv-x="1413" 
d="M838 1531h470l-269 -301h-643l-269 301h470l114 -146h13zM1337 0h-1284v334l609 453h-566v319h1241v-329l-610 -455h610v-322z" />
    <glyph glyph-name="florin" unicode="&#x192;" horiz-adv-x="1263" 
d="M1135 1239q-33 0 -53 -1.5t-46.5 -7.5t-43 -17t-30.5 -32.5t-20 -52.5l-38 -201h250v-287h-307l-64 -326q-18 -91 -55 -156t-86.5 -104t-125 -61.5t-154 -30t-189.5 -7.5q-72 0 -154 7v302q78 -6 111 -6t53 1.5t46.5 7.5t43 17t30.5 32.5t20 52.5l53 271h-202v287h259
l49 256q18 91 55 156t86.5 104t125 61.5t154 30t189.5 7.5q71 0 153 -7v-302q-78 6 -110 6z" />
    <glyph glyph-name="Oslashacute" unicode="&#x1fe;" horiz-adv-x="2050" 
d="M1740 1895l-465 -303h-470l195 303h740zM1791 1265q196 -198 196 -534q0 -197 -67 -346t-193 -243.5t-302 -142t-400 -47.5q-370 0 -604 126l-185 -160l-162 120l185 160q-196 198 -196 533q0 197 67 346t193 243.5t302 142t400 47.5q370 0 604 -126l185 160l162 -120z
M581 731q0 -125 48 -213l649 562q-100 50 -253 50q-222 0 -333 -104.5t-111 -294.5zM1025 333q222 0 333 104t111 294q0 125 -48 213l-649 -561q100 -50 253 -50z" />
    <glyph glyph-name="oslashacute" unicode="&#x1ff;" 
d="M1411 1533l-391 -303h-395l164 303h622zM1453 961q153 -150 153 -408q0 -289 -194 -444t-582 -155q-310 0 -498 101l-124 -100l-128 87l128 103q-153 150 -153 408q0 288 193.5 443.5t581.5 155.5q311 0 499 -101l124 100l128 -87zM536 553q0 -71 22 -124l445 359
q-69 37 -173 37q-147 0 -220.5 -71.5t-73.5 -200.5zM830 281q147 0 221 71.5t74 200.5q0 72 -22 125l-445 -360q69 -37 172 -37z" />
    <glyph glyph-name="Scommaaccent" unicode="&#x218;" horiz-adv-x="1832" 
d="M1188 1024q-7 88 -87.5 126t-227.5 38q-267 0 -267 -121q0 -52 41 -77.5t127 -34.5l510 -57q247 -28 370.5 -136t123.5 -316q0 -86 -21 -155.5t-58.5 -120.5t-97 -89t-130 -62.5t-164 -39.5t-192 -21t-221.5 -6q-165 0 -288.5 13t-233.5 48.5t-181 95t-114 154t-48 224.5
h541q4 -51 22 -87.5t46.5 -59t72.5 -35.5t91 -17.5t111 -4.5q158 0 232 32t74 98q0 61 -50 90.5t-147 41.5l-457 56q-248 30 -374 131.5t-126 305.5q0 109 41 191.5t111.5 135.5t176.5 86t225.5 46t269.5 13q149 0 267.5 -13t225.5 -46.5t179.5 -87.5t116.5 -139.5
t49 -199.5h-539zM1130 -125v-190q0 -48 -3 -79t-13.5 -64.5t-31 -53t-54 -38.5t-84 -28.5t-121 -15t-164.5 -5.5v118q71 0 115.5 7.5t63 23.5t23.5 31t5 40h-207v254h471z" />
    <glyph glyph-name="scommaaccent" unicode="&#x219;" horiz-adv-x="1593" 
d="M1002 781q-11 104 -249 104q-100 0 -147.5 -20.5t-47.5 -54.5q0 -31 24.5 -45t91.5 -22l427 -46q231 -25 333.5 -102.5t102.5 -257.5q0 -91 -32.5 -158t-92 -110t-155 -69t-208 -36t-265.5 -10q-141 0 -247 9.5t-203 35.5t-159.5 70t-101 114.5t-42.5 166.5h509
q6 -69 63.5 -96t190.5 -27q130 0 181 22.5t51 62.5q0 35 -27 50.5t-96 24.5l-390 50q-114 14 -192 36t-138.5 61t-89.5 100t-29 148t35 152t94.5 106t149.5 66.5t190 35.5t226 10q163 0 288.5 -18t227.5 -59t158 -115t61 -179h-492zM1020 -125v-190q0 -48 -3 -79
t-13.5 -64.5t-31 -53t-54 -38.5t-84 -28.5t-121 -15t-164.5 -5.5v118q71 0 115.5 7.5t63 23.5t23.5 31t5 40h-207v254h471z" />
    <glyph glyph-name="uni021A" unicode="&#x21a;" 
d="M1620 1462v-373h-554v-1089h-471v1089h-553v373h1578zM1066 -125v-190q0 -48 -3 -79t-13.5 -64.5t-31 -53t-54 -38.5t-84 -28.5t-121 -15t-164.5 -5.5v118q71 0 115.5 7.5t63.5 23.5t24 31t5 40h-208v254h471z" />
    <glyph glyph-name="uni021B" unicode="&#x21b;" horiz-adv-x="1005" 
d="M793 344q107 0 149 3v-347q-150 -18 -271 -18q-184 0 -286.5 35t-146 111.5t-43.5 213.5v497h-182v267h182v299h462v-299h285v-267h-285v-410q0 -48 33.5 -66.5t102.5 -18.5zM804 -125v-190q0 -48 -3 -79t-13.5 -64.5t-31 -53t-54 -38.5t-84 -28.5t-121 -15t-164.5 -5.5
v118q71 0 115.5 7.5t63.5 23.5t24 31t5 40h-208v254h471z" />
    <glyph glyph-name="uni0237" unicode="&#x237;" horiz-adv-x="651" 
d="M10 -39q42 0 63 19t21 71v1055h463v-1174q0 -81 -14.5 -136.5t-46 -94.5t-87.5 -61t-131 -31.5t-185 -9.5q-112 0 -177 7v357q6 0 38.5 -1t55.5 -1z" />
    <glyph glyph-name="uni02BC" unicode="&#x2bc;" horiz-adv-x="675" 
d="M568 1483v-263q0 -243 -108 -345.5t-352 -102.5v144q111 0 159.5 59t48.5 151h-208v357h460z" />
    <glyph glyph-name="circumflex" unicode="&#x2c6;" horiz-adv-x="1396" 
d="M819 1230l-115 145h-12l-115 -145h-469l268 301h643l269 -301h-469z" />
    <glyph glyph-name="caron" unicode="&#x2c7;" horiz-adv-x="1396" 
d="M819 1531h469l-269 -301h-643l-268 301h469l115 -146h12z" />
    <glyph glyph-name="breve" unicode="&#x2d8;" horiz-adv-x="1193" 
d="M1087 1537q-2 -67 -32 -123t-78 -94.5t-111.5 -65t-131.5 -39t-138 -12.5q-89 0 -172.5 20.5t-154 60t-114.5 105t-47 148.5h361q11 -87 127 -87q117 0 128 87h363z" />
    <glyph glyph-name="dotaccent" unicode="&#x2d9;" horiz-adv-x="686" 
d="M108 1237v254h471v-254h-471z" />
    <glyph glyph-name="ring" unicode="&#x2da;" horiz-adv-x="929" 
d="M465 1203q-153 0 -255 77t-102 205t102 204.5t255 76.5q154 0 256 -76.5t102 -204.5t-102.5 -205t-255.5 -77zM465 1388q49 0 82.5 26.5t33.5 70.5t-33.5 70.5t-82.5 26.5t-82 -26.5t-33 -70.5t33 -70.5t82 -26.5z" />
    <glyph glyph-name="ogonek" unicode="&#x2db;" horiz-adv-x="833" 
d="M605 -270q42 0 121 17v-222q-83 -19 -213 -19q-204 0 -304.5 60t-100.5 169q0 107 121 195t283 105l214 -35q-104 -33 -167 -88.5t-63 -104.5q0 -40 30.5 -58.5t78.5 -18.5z" />
    <glyph glyph-name="tilde" unicode="&#x2dc;" horiz-adv-x="1300" 
d="M869 1193q-58 0 -139 23.5t-151 47.5t-103 24q-38 0 -51.5 -16t-15.5 -56h-301q0 69 19.5 127.5t51.5 97.5t73.5 66.5t86 40t88.5 12.5q59 0 141 -24t152.5 -47.5t103.5 -23.5q38 0 51 16t15 57h302q0 -86 -30 -154.5t-78 -108.5t-103.5 -61t-111.5 -21z" />
    <glyph glyph-name="hungarumlaut" unicode="&#x2dd;" horiz-adv-x="1445" 
d="M745 1533l-267 -303h-370l151 303h486zM1338 1533l-267 -303h-370l151 303h486z" />
    <glyph glyph-name="uni0326" unicode="&#x326;" horiz-adv-x="0" 
d="M-108 -125v-190q0 -48 -3 -79t-13.5 -64.5t-31 -53t-54 -38.5t-84 -28.5t-121 -15t-164.5 -5.5v118q71 0 115.5 7.5t63.5 23.5t24 31t5 40h-208v254h471z" />
    <glyph glyph-name="Wgrave" unicode="&#x1e80;" horiz-adv-x="2443" 
d="M641 1895h622l164 -303h-395zM2023 0h-579l-215 896h-12l-216 -896h-589l-422 1462h520l219 -912h12l220 912h523l219 -912h12l221 912h516z" />
    <glyph glyph-name="wgrave" unicode="&#x1e81;" horiz-adv-x="2359" 
d="M601 1533h622l165 -303h-395zM2353 1106l-451 -1106h-506l-205 631h-12l-205 -631h-509l-456 1106h514l213 -625h12l203 625h463l213 -623h13l201 623h512z" />
    <glyph glyph-name="Wacute" unicode="&#x1e82;" horiz-adv-x="2443" 
d="M1824 1895l-391 -303h-395l164 303h622zM2023 0h-579l-215 896h-12l-216 -896h-589l-422 1462h520l219 -912h12l220 912h523l219 -912h12l221 912h516z" />
    <glyph glyph-name="wacute" unicode="&#x1e83;" horiz-adv-x="2359" 
d="M1763 1533l-391 -303h-395l164 303h622zM2353 1106l-451 -1106h-506l-205 631h-12l-205 -631h-509l-456 1106h514l213 -625h12l203 625h463l213 -623h13l201 623h512z" />
    <glyph glyph-name="Wdieresis" unicode="&#x1e84;" horiz-adv-x="2443" 
d="M708 1594v254h425v-254h-425zM1313 1594v254h425v-254h-425zM2023 0h-579l-215 896h-12l-216 -896h-589l-422 1462h520l219 -912h12l220 912h523l219 -912h12l221 912h516z" />
    <glyph glyph-name="wdieresis" unicode="&#x1e85;" horiz-adv-x="2359" 
d="M667 1237v254h425v-254h-425zM1273 1237v254h425v-254h-425zM2353 1106l-451 -1106h-506l-205 631h-12l-205 -631h-509l-456 1106h514l213 -625h12l203 625h463l213 -623h13l201 623h512z" />
    <glyph glyph-name="Ygrave" unicode="&#x1ef2;" horiz-adv-x="1820" 
d="M328 1895h623l164 -303h-395zM1841 1462l-693 -974v-488h-475v488l-692 974h557l373 -573l372 573h558z" />
    <glyph glyph-name="ygrave" unicode="&#x1ef3;" horiz-adv-x="1605" 
d="M221 1533h622l164 -303h-395zM1605 1106l-566 -1125q-43 -85 -78 -141.5t-76.5 -101.5t-83 -70t-101 -41.5t-125 -22t-159.5 -5.5h-238v365h173q84 0 117.5 13t50.5 49l17 35l-537 1045h524l273 -641h12l273 641h524z" />
    <glyph glyph-name="uni2007" unicode="&#x2007;" horiz-adv-x="620" 
 />
    <glyph glyph-name="uni2008" unicode="&#x2008;" horiz-adv-x="540" 
 />
    <glyph glyph-name="uni200B" unicode="&#x200b;" horiz-adv-x="0" 
 />
    <glyph glyph-name="endash" unicode="&#x2013;" horiz-adv-x="1447" 
d="M1386 451h-1327v287h1327v-287z" />
    <glyph glyph-name="emdash" unicode="&#x2014;" horiz-adv-x="1927" 
d="M1872 451h-1814v287h1814v-287z" />
    <glyph glyph-name="quoteleft" unicode="&#x2018;" horiz-adv-x="600" 
d="M70 675v295q0 264 111.5 378t348.5 114v-158q-92 0 -137 -66.5t-45 -165.5h182v-397h-460z" />
    <glyph glyph-name="quoteright" unicode="&#x2019;" horiz-adv-x="600" 
d="M530 1462v-295q0 -264 -111.5 -378t-348.5 -114v159q92 0 137.5 66.5t45.5 164.5h-183v397h460z" />
    <glyph glyph-name="quotesinglbase" unicode="&#x201a;" horiz-adv-x="600" 
d="M530 398v-296q0 -264 -111.5 -378t-348.5 -114v159q92 0 137.5 66.5t45.5 164.5h-183v398h460z" />
    <glyph glyph-name="quotedblleft" unicode="&#x201c;" horiz-adv-x="1245" 
d="M70 675v295q0 264 111.5 378t348.5 114v-158q-92 0 -137 -66.5t-45 -165.5h182v-397h-460zM715 675v295q0 264 111.5 378t348.5 114v-158q-92 0 -137.5 -67t-45.5 -165h183v-397h-460z" />
    <glyph glyph-name="quotedblright" unicode="&#x201d;" horiz-adv-x="1245" 
d="M530 1462v-295q0 -264 -111.5 -378t-348.5 -114v159q92 0 137.5 66.5t45.5 164.5h-183v397h460zM1175 1462v-295q0 -264 -111.5 -378t-348.5 -114v159q92 0 137.5 66.5t45.5 164.5h-183v397h460z" />
    <glyph glyph-name="quotedblbase" unicode="&#x201e;" horiz-adv-x="1245" 
d="M530 398v-296q0 -264 -111.5 -378t-348.5 -114v159q92 0 137.5 66.5t45.5 164.5h-183v398h460zM1175 398v-296q0 -264 -111.5 -378t-348.5 -114v159q92 0 137.5 66.5t45.5 164.5h-183v398h460z" />
    <glyph glyph-name="dagger" unicode="&#x2020;" horiz-adv-x="1456" 
d="M1400 1032v-359h-453v-1040h-437v1040h-452v359h452v430h437v-430h453z" />
    <glyph glyph-name="daggerdbl" unicode="&#x2021;" horiz-adv-x="1456" 
d="M1400 698h-453v-301h453v-334h-453v-430h-437v430h-452v334h452v301h-452v334h452v430h437v-430h453v-334z" />
    <glyph glyph-name="bullet" unicode="&#x2022;" horiz-adv-x="905" 
d="M452 342q-161 0 -275 114t-114 275t114 275t275 114t275 -114t114 -275t-114 -275t-275 -114z" />
    <glyph glyph-name="ellipsis" unicode="&#x2026;" horiz-adv-x="2160" 
d="M108 0v430h505v-430h-505zM828 0v430h505v-430h-505zM1548 0v430h506v-430h-506z" />
    <glyph glyph-name="perthousand" unicode="&#x2030;" horiz-adv-x="3418" 
d="M530 1462q243 0 357.5 -101t114.5 -319q0 -217 -114.5 -318t-357.5 -101t-357.5 101t-114.5 318q0 218 114.5 319t357.5 101zM1521 1434h263l-934 -1434h-262zM530 846q74 0 113 43.5t39 152.5t-39.5 153t-112.5 44q-74 0 -113.5 -44t-39.5 -153t39.5 -152.5t113.5 -43.5
zM1842 811q243 0 357.5 -101t114.5 -319t-114.5 -319t-357.5 -101t-357.5 101t-114.5 319t114.5 319t357.5 101zM2888 811q243 0 358 -101.5t115 -318.5t-115 -318.5t-358 -101.5t-357.5 101t-114.5 319t114.5 319t357.5 101zM1842 195q74 0 113 43.5t39 152.5t-39 152.5
t-113 43.5t-113 -43.5t-39 -152.5t39 -152.5t113 -43.5zM2888 195q74 0 113.5 43.5t39.5 152.5t-39.5 152.5t-113.5 43.5t-113 -43.5t-39 -152.5t39 -152.5t113 -43.5z" />
    <glyph glyph-name="guilsinglleft" unicode="&#x2039;" horiz-adv-x="579" 
d="M81 788l420 290v-361l-232 -154v-10l232 -154v-361l-420 288v462z" />
    <glyph glyph-name="guilsinglright" unicode="&#x203a;" horiz-adv-x="563" 
d="M499 788v-462l-420 -288v361l232 154v10l-232 154v361z" />
    <glyph glyph-name="uni2070" unicode="&#x2070;" horiz-adv-x="1208" 
d="M603 1490q542 0 542 -456q0 -451 -542 -451q-540 0 -540 451q0 456 540 456zM603 799q122 0 176 59.5t54 175.5q0 118 -54 177.5t-176 59.5t-176 -59.5t-54 -177.5q0 -116 54 -175.5t176 -59.5z" />
    <glyph glyph-name="franc" unicode="&#x20a3;" horiz-adv-x="2023" 
d="M123 0v1434h1447v-361h-981v-185h999q193 0 287.5 -86.5t94.5 -243.5q0 -102 -42 -158t-120 -84v-12l183 -304h-421l-139 230h-228v-230h-391v554h-223v-554h-466zM1203 603v-140h248q82 0 82 68q0 33 -21.5 52.5t-60.5 19.5h-248z" />
    <glyph glyph-name="Euro" unicode="&#x20ac;" horiz-adv-x="1740" 
d="M779 511q95 -167 353 -167q247 0 440 117v-414q-155 -70 -440 -70q-360 0 -584.5 133t-286.5 401h-216l112 152h84q-2 18 -2 54q0 37 2 55h-196l108 151h108q62 268 286 400.5t583 132.5q165 0 319 -40.5t237 -104.5l-236 -307q-135 86 -320 86q-257 0 -352 -167h615
l-112 -151h-549q-2 -18 -2 -55q0 -36 2 -54h471l-108 -152h-316z" />
    <glyph glyph-name="uni2116" unicode="&#x2116;" horiz-adv-x="3072" 
d="M2481 1480q244 0 363 -92.5t119 -264.5q0 -360 -482 -360q-480 0 -480 360q0 172 118 264.5t362 92.5zM1350 1462h449v-1462h-541l-690 900h-12v-900h-448v1462h556l674 -880h12v880zM2481 967q170 0 170 156q0 152 -170 152q-86 0 -127.5 -40t-41.5 -112
q0 -74 41.5 -115t127.5 -41zM2001 234h962v-234h-962v234z" />
    <glyph glyph-name="trademark" unicode="&#x2122;" horiz-adv-x="2078" 
d="M870 1462v-199h-288v-534h-236v534h-288v199h812zM2022 1462v-733h-238v499h-12l-181 -499h-188l-185 506h-13v-506h-224v733h373l137 -423h12l136 423h383z" />
    <glyph glyph-name="uni2126" unicode="&#x2126;" horiz-adv-x="2111" 
d="M73 0v272h450v12q-93 15 -169.5 53t-135.5 101t-92 158.5t-33 215.5q0 224 117.5 382t332.5 237t512 79t512 -79t332.5 -237t117.5 -382q0 -120 -33 -215.5t-92 -158.5t-135.5 -101t-169.5 -53v-12h450v-272h-879v371q149 23 245.5 128.5t96.5 260.5q0 170 -118 266.5
t-327 96.5t-326.5 -96.5t-117.5 -266.5q0 -155 96.5 -260.5t245.5 -128.5v-371h-880z" />
    <glyph glyph-name="partialdiff" unicode="&#x2202;" horiz-adv-x="1683" 
d="M769 1532q841 0 841 -793q0 -173 -36.5 -306.5t-104 -223.5t-169 -147.5t-225 -83t-279.5 -25.5q-115 0 -219 17.5t-197 56.5t-160.5 96t-107 141t-39.5 186q0 89 21.5 163.5t59 128.5t90.5 96.5t112 69t128.5 44t135.5 24.5t137 7q209 0 337 -69q-18 84 -54 140.5
t-87.5 85.5t-105.5 40t-123 11q-228 0 -431 -114l-133 313q114 67 271 104.5t338 37.5zM793 276q154 0 224.5 76t86.5 239q-83 68 -242 68q-85 0 -152 -19t-111.5 -66.5t-44.5 -118.5q0 -87 66.5 -133t172.5 -46z" />
    <glyph glyph-name="emptyset" unicode="&#x2205;" horiz-adv-x="1740" 
d="M1384 1274q110 -105 172 -246t62 -297q0 -153 -59 -291t-159 -238t-238.5 -159t-291.5 -59q-208 0 -381 104l-77 -104h-209l153 204q-110 103 -171.5 244t-61.5 299q0 153 59 291.5t159 238.5t238 159t291 59q203 0 383 -105l78 105h209zM313 731q0 -114 40.5 -217
t113.5 -182l680 901q-127 76 -277 76q-152 0 -280.5 -77.5t-202.5 -210.5t-74 -290zM870 154q114 0 217 45.5t177.5 123t118.5 184t44 224.5q0 230 -151 397l-680 -901q124 -73 274 -73z" />
    <glyph glyph-name="uni2206" unicode="&#x2206;" horiz-adv-x="2031" 
d="M1340 1462l683 -1462h-2015l683 1462h649zM641 326h744l-364 820h-12z" />
    <glyph glyph-name="product" unicode="&#x220f;" horiz-adv-x="1906" 
d="M1799 -303h-471v1366h-749v-1366h-471v1765h1691v-1765z" />
    <glyph glyph-name="summation" unicode="&#x2211;" horiz-adv-x="1689" 
d="M1612 87v-390h-1504v338l587 547l-554 546v334h1433v-389h-746l465 -465l-559 -521h878z" />
    <glyph glyph-name="minus" unicode="&#x2212;" horiz-adv-x="1331" 
d="M1206 812v-289h-1082v289h1082z" />
    <glyph glyph-name="uni2219" unicode="&#x2219;" horiz-adv-x="739" 
d="M369 410q-101 0 -173 72.5t-72 173.5t72 173t173 72t173 -72t72 -173t-72 -173.5t-173 -72.5z" />
    <glyph glyph-name="radical" unicode="&#x221a;" horiz-adv-x="1433" 
d="M1378 1434l-539 -1737h-308l-256 688l-156 -66l-61 123l397 165l247 -665h5l462 1492h209z" />
    <glyph glyph-name="infinity" unicode="&#x221e;" horiz-adv-x="1740" 
d="M1228 1020q114 0 204.5 -58.5t136.5 -147t46 -185.5q0 -78 -27.5 -150t-76.5 -127.5t-122.5 -89t-160.5 -33.5q-208 0 -373 192q-172 -192 -352 -192q-85 0 -157 33.5t-120 89t-75 127.5t-27 150q0 72 27 141.5t74.5 125t120.5 90t157 34.5q210 0 371 -192
q79 88 163.5 140t190.5 52zM507 439q72 0 123 39t106 124q-66 114 -114.5 162.5t-114.5 48.5q-76 0 -115 -52t-39 -132q0 -82 40.5 -136t113.5 -54zM1224 439q75 0 117 54t42 136q0 80 -40.5 132t-118.5 52q-72 0 -124 -40.5t-105 -123.5q62 -112 111.5 -161t117.5 -49z" />
    <glyph glyph-name="integral" unicode="&#x222b;" horiz-adv-x="1126" 
d="M872 1542q55 0 102.5 -3t77.5 -6.5t35 -3.5v-296q-78 6 -113 6q-113 0 -146 -26t-33 -106v-1127q0 -105 -35.5 -176t-108.5 -110.5t-168 -56t-229 -16.5q-55 0 -102.5 3t-77.5 7t-35 4v295q78 -6 113 -6q113 0 146.5 26t33.5 106v1127q0 105 35.5 176t108 110.5t167.5 56
t229 16.5z" />
    <glyph glyph-name="approxequal" unicode="&#x2248;" horiz-adv-x="1331" 
d="M950 916q53 0 112.5 41.5t143.5 133.5v-301q-124 -142 -256 -142q-46 0 -93.5 12.5t-70 22.5t-59.5 29l-148 74q-39 20 -55.5 28t-60.5 20.5t-83 12.5q-54 0 -113 -41.5t-143 -132.5v301q126 141 256 141q46 0 94 -12.5t70.5 -22.5t59.5 -29l148 -73q3 -2 23.5 -12
t29.5 -14t30 -12.5t36 -12.5t36.5 -7.5t42.5 -3.5zM950 482q53 0 112.5 41.5t143.5 133.5v-301q-124 -142 -256 -142q-46 0 -93.5 12.5t-70 22.5t-59.5 29l-148 73q-1 1 -15 8t-18.5 9t-18.5 9t-21.5 9.5t-21.5 8t-24.5 8t-24.5 5.5t-27.5 4t-27.5 1q-54 0 -113 -41.5
t-143 -132.5v301q126 141 256 141q46 0 94 -12.5t70.5 -22.5t59.5 -29l148 -74q4 -2 20.5 -10t24 -12t24.5 -11t29.5 -11t30 -8.5t34.5 -6.5t35 -2z" />
    <glyph glyph-name="notequal" unicode="&#x2260;" horiz-adv-x="1331" 
d="M1206 749h-342l-109 -167h451v-288h-636l-117 -181h-288l116 181h-157v288h342l110 167h-452v289h637l117 180h288l-117 -180h157v-289z" />
    <glyph glyph-name="lessequal" unicode="&#x2264;" horiz-adv-x="1331" 
d="M126 882l1078 331v-261l-608 -183v-13l608 -183v-261l-1078 331v239zM1206 247v-247h-1082v247h1082z" />
    <glyph glyph-name="greaterequal" unicode="&#x2265;" horiz-adv-x="1331" 
d="M1204 882v-239l-1078 -331v261l608 183v13l-608 183v261zM124 247h1082v-247h-1082v247z" />
    <glyph glyph-name="lozenge" unicode="&#x25ca;" horiz-adv-x="1570" 
d="M915 1528l549 -795l-549 -794h-259l-548 794l548 795h259zM788 145l387 588l-387 591l-390 -591z" />
    <glyph glyph-name="i.loclTRK" horiz-adv-x="651" 
d="M90 1237v254h471v-254h-471zM94 0v1106h463v-1106h-463z" />
    <glyph glyph-name="N_T" horiz-adv-x="3418" 
d="M3377 1462v-373h-554v-1089h-471v1089h-553v-1089h-541l-690 900h-12v-900h-448v1462h556l674 -880h12v880h2027z" />
    <glyph glyph-name="N_T_U" horiz-adv-x="5165" 
d="M4587 1462h471v-827q0 -159 -39 -278t-109 -195.5t-177.5 -123t-231 -65.5t-284.5 -19q-133 0 -240 13t-204 43t-168 82t-123.5 126.5t-78.5 179t-26 237.5v454h-554v-1089h-471v1089h-553v-1089h-541l-690 900h-12v-900h-448v1462h556l674 -880h12v880h2498v-826
q0 -71 17 -123.5t47.5 -86.5t77.5 -55t101.5 -29.5t125.5 -8.5q89 0 153.5 14t115 47t76 93.5t25.5 148.5v826z" />
    <glyph glyph-name="N_T_Y" horiz-adv-x="4950" 
d="M4411 1462h557l-692 -974v-488h-475v488l-427 601h-551v-1089h-471v1089h-553v-1089h-541l-690 900h-12v-900h-448v1462h556l674 -880h12v880h2316l372 -573z" />
    <glyph glyph-name="T_T" horiz-adv-x="2891" 
d="M2850 1462v-373h-553v-1089h-471v1089h-760v-1089h-471v1089h-553v373h2808z" />
    <glyph glyph-name="T_T_U" horiz-adv-x="4638" 
d="M4060 1462h471v-827q0 -133 -26 -237.5t-78.5 -179t-123.5 -126.5t-168 -82t-204 -43t-240 -13q-161 0 -284.5 19t-231 65.5t-177.5 123t-109 195.5t-39 278v454h-553v-1089h-471v1089h-760v-1089h-471v1089h-553v373h3279v-826q0 -88 25.5 -148.5t76 -93.5t115 -47
t153.5 -14q71 0 125.5 8.5t101.5 29.5t77.5 55t47.5 86.5t17 123.5v826z" />
    <glyph glyph-name="T_T_Y" horiz-adv-x="4421" 
d="M3884 1462h558l-693 -974v-488h-475v488l-427 601h-550v-1089h-471v1089h-760v-1089h-471v1089h-553v373h3098l372 -573z" />
    <glyph glyph-name="T_U" horiz-adv-x="3407" 
d="M2830 1462h471v-827q0 -159 -39 -278t-109 -195.5t-177.5 -123t-231 -65.5t-284.5 -19q-133 0 -240 13t-204 43t-168 82t-123.5 126.5t-78.5 179t-26 237.5v454h-554v-1089h-471v1089h-553v373h2049v-826q0 -71 17 -123.5t47.5 -86.5t77.5 -55t101.5 -29.5t125.5 -8.5
q89 0 153.5 14t115 47t76 93.5t25.5 148.5v826z" />
    <glyph glyph-name="T_V" horiz-adv-x="3307" 
d="M2775 1462h548l-660 -1462h-553l-490 1089h-554v-1089h-471v1089h-553v373h1957l382 -949h12z" />
    <glyph glyph-name="T_W" horiz-adv-x="3962" 
d="M3457 1462h516l-428 -1462h-579l-216 896h-12l-215 -896h-589l-314 1089h-554v-1089h-471v1089h-553v373h1990l218 -912h13l219 912h523l219 -912h13z" />
    <glyph glyph-name="T_Y" horiz-adv-x="3192" 
d="M2654 1462h557l-692 -974v-488h-475v488l-427 601h-551v-1089h-471v1089h-553v373h1867l372 -573z" />
    <glyph glyph-name="T_h" horiz-adv-x="3158" 
d="M2569 1135q227 0 361 -108.5t134 -323.5v-703h-463v562q0 212 -231 212q-54 0 -101.5 -13t-91 -42.5t-69 -86t-25.5 -135.5v-497h-463v1089h-554v-1089h-471v1089h-553v373h1578v21h463v-515h12q179 167 474 167z" />
    <glyph glyph-name="T_i" horiz-adv-x="2181" 
d="M2087 1237h-467v-131h463v-1106h-463v1089h-554v-1089h-471v1089h-553v373h1574v29h471v-254z" />
    <glyph glyph-name="U_T" horiz-adv-x="3407" 
d="M3366 1462v-373h-553v-1089h-471v1089h-554v-454q0 -133 -26 -237.5t-78.5 -179t-123.5 -126.5t-168 -82t-204 -43t-240 -13t-240 13t-204 43t-168 82t-123.5 126.5t-78.5 179t-26 237.5v827h471v-826q0 -71 17 -123.5t47.5 -86.5t77.5 -55t101.5 -29.5t125.5 -8.5
t125.5 8.5t101.5 29.5t77.5 55t47.5 86.5t17 123.5v826h2049z" />
    <glyph glyph-name="U_T_T" horiz-adv-x="4638" 
d="M4597 1462v-373h-553v-1089h-472v1089h-759v-1089h-471v1089h-554v-454q0 -133 -26 -237.5t-78.5 -179t-123.5 -126.5t-168 -82t-204 -43t-240 -13t-240 13t-204 43t-168 82t-123.5 126.5t-78.5 179t-26 237.5v827h471v-826q0 -71 17 -123.5t47.5 -86.5t77.5 -55
t101.5 -29.5t125.5 -8.5t125.5 8.5t101.5 29.5t77.5 55t47.5 86.5t17 123.5v826h3280z" />
    <glyph glyph-name="U_T_U" horiz-adv-x="5154" 
d="M4576 1462h471v-827q0 -133 -26 -237.5t-78.5 -179t-123.5 -126.5t-168 -82t-204 -43t-240 -13q-161 0 -284.5 19t-231 65.5t-177.5 123t-109 195.5t-39 278v454h-553v-1089h-471v1089h-554v-454q0 -133 -26 -237.5t-78.5 -179t-123.5 -126.5t-168 -82t-204 -43t-240 -13
t-240 13t-204 43t-168 82t-123.5 126.5t-78.5 179t-26 237.5v827h471v-826q0 -71 17 -123.5t47.5 -86.5t77.5 -55t101.5 -29.5t125.5 -8.5t125.5 8.5t101.5 29.5t77.5 55t47.5 86.5t17 123.5v826h2520v-826q0 -88 25.5 -148.5t76 -93.5t115 -47t153.5 -14q71 0 125.5 8.5
t101.5 29.5t77.5 55t47.5 86.5t17 123.5v826z" />
    <glyph glyph-name="U_T_Y" horiz-adv-x="4937" 
d="M4400 1462h558l-693 -974v-488h-474v488l-427 601h-551v-1089h-471v1089h-554v-454q0 -133 -26 -237.5t-78.5 -179t-123.5 -126.5t-168 -82t-204 -43t-240 -13t-240 13t-204 43t-168 82t-123.5 126.5t-78.5 179t-26 237.5v827h471v-826q0 -71 17 -123.5t47.5 -86.5
t77.5 -55t101.5 -29.5t125.5 -8.5t125.5 8.5t101.5 29.5t77.5 55t47.5 86.5t17 123.5v826h2339l372 -573z" />
    <glyph glyph-name="V_T" horiz-adv-x="3307" 
d="M3266 1462v-373h-553v-1089h-471v1089h-554l-491 -1089h-553l-659 1462h548l381 -949h13l381 949h1958z" />
    <glyph glyph-name="W_T" horiz-adv-x="3960" 
d="M3920 1462v-373h-554v-1089h-471v1089h-553l-319 -1089h-579l-215 896h-12l-216 -896h-589l-422 1462h520l219 -912h12l220 912h523l219 -912h12l221 912h1984z" />
    <glyph glyph-name="Y_T" horiz-adv-x="3192" 
d="M3151 1462v-373h-553v-1089h-471v1089h-552l-427 -601v-488h-475v488l-692 974h557l373 -573l372 573h1868z" />
    <glyph glyph-name="Y_T_T" horiz-adv-x="4423" 
d="M4382 1462v-373h-554v-1089h-471v1089h-759v-1089h-471v1089h-552l-427 -601v-488h-475v488l-692 974h557l373 -573l372 573h3099z" />
    <glyph glyph-name="f_i" horiz-adv-x="1632" 
d="M860 1239q-122 0 -161.5 -27.5t-27.5 -105.5h285v-267h-285v-839h-463v839h-182v267h182v77q0 105 36 176t110 110.5t171 56t235 16.5q56 0 104.5 -3t79.5 -6.5t37 -3.5v-296q-81 6 -121 6zM1072 1237v254h471v-254h-471zM1076 0v1106h463v-1106h-463z" />
    <glyph glyph-name="f_l" horiz-adv-x="1662" 
d="M860 1239q-122 0 -161.5 -27.5t-27.5 -105.5h285v-267h-285v-839h-463v839h-182v267h182v77q0 105 36 176t110 110.5t171 56t235 16.5q56 0 104.5 -3t79.5 -6.5t37 -3.5v-296q-81 6 -121 6zM1107 0v1483h463v-1483h-463z" />
    <glyph glyph-name="f_t" horiz-adv-x="1918" 
d="M1855 839h-285v-410q0 -48 33 -66.5t102 -18.5q108 0 150 3v-347q-150 -18 -272 -18q-184 0 -286.5 35t-146 111.5t-43.5 213.5v497h-436v-839h-463v839h-182v267h182v77q0 105 36 176t110 110.5t171 56t235 16.5q56 0 104.5 -3t79.5 -6.5t37 -3.5v-296q-81 6 -121 6
q-122 0 -161.5 -27.5t-27.5 -105.5h436v299h463v-299h285v-267z" />
    <glyph glyph-name="caroncomb.alt" horiz-adv-x="0" 
d="M-108 1483v-178q0 -192 -88.5 -278t-294.5 -87v138q102 1 140 32.5t38 104.5h-178v268h383z" />
    <glyph glyph-name="uni0326.case" horiz-adv-x="0" 
d="M-108 -125v-190q0 -48 -3 -79t-13.5 -64.5t-31 -53t-54 -38.5t-84 -28.5t-121 -15t-164.5 -5.5v118q71 0 115.5 7.5t63.5 23.5t24 31t5 40h-208v254h471z" />
    <glyph glyph-name="caron.alt" horiz-adv-x="675" 
d="M568 1483v-263q0 -243 -108 -345.5t-352 -102.5v144q111 0 159.5 59t48.5 151h-208v357h460z" />
    <glyph glyph-name="acute.case" horiz-adv-x="1001" 
d="M894 1895l-391 -303h-395l164 303h622z" />
    <glyph glyph-name="breve.case" horiz-adv-x="1193" 
d="M1087 1901q-3 -83 -47 -148.5t-115.5 -104.5t-155.5 -59.5t-173 -20.5t-172.5 20.5t-154.5 59.5t-114.5 104.5t-46.5 148.5h361q11 -86 127 -86q117 0 128 86h363z" />
    <glyph glyph-name="caron.case" horiz-adv-x="1396" 
d="M819 1895h469l-269 -301h-643l-268 301h469l115 -145h12z" />
    <glyph glyph-name="cedilla.case" horiz-adv-x="946" 
d="M108 -483v168h12q86 -27 140.5 -35.5t138.5 -8.5q60 0 90.5 12.5t30.5 45.5t-30.5 45.5t-90.5 12.5q-103 0 -169 -16h-12v102l170 208h206l-124 -153q20 4 51 4q166 0 241.5 -46.5t75.5 -154.5q0 -122 -97.5 -171.5t-325.5 -49.5q-174 0 -307 37z" />
    <glyph glyph-name="circumflex.case" horiz-adv-x="1396" 
d="M819 1592l-115 145h-12l-115 -145h-469l268 301h643l269 -301h-469z" />
    <glyph glyph-name="dieresis.case" horiz-adv-x="1245" 
d="M108 1594v254h424v-254h-424zM713 1594v254h425v-254h-425z" />
    <glyph glyph-name="dotaccent.case" horiz-adv-x="686" 
d="M108 1594v254h471v-254h-471z" />
    <glyph glyph-name="grave.case" horiz-adv-x="1001" 
d="M108 1895h622l164 -303h-395z" />
    <glyph glyph-name="hungarumlaut.case" horiz-adv-x="1445" 
d="M745 1895l-267 -303h-370l151 303h486zM1338 1895l-267 -303h-370l151 303h486z" />
    <glyph glyph-name="macron.case" horiz-adv-x="1196" 
d="M1089 1597h-981v251h981v-251z" />
    <glyph glyph-name="ogonek.case" horiz-adv-x="835" 
d="M606 -270q43 0 122 17v-222q-83 -19 -212 -19q-204 0 -306 60t-102 169q0 107 122 195t284 105l214 -35q-104 -33 -166.5 -88t-62.5 -105q0 -40 30 -58.5t77 -18.5z" />
    <glyph glyph-name="ring.case" horiz-adv-x="929" 
d="M465 1519q-153 0 -255 76.5t-102 204.5t102 205t255 77t255.5 -77t102.5 -205t-102 -204.5t-256 -76.5zM465 1703q49 0 82.5 26.5t33.5 70.5t-33.5 70.5t-82.5 26.5t-82 -26.5t-33 -70.5t33 -70.5t82 -26.5z" />
    <glyph glyph-name="tilde.case" horiz-adv-x="1300" 
d="M869 1555q-58 0 -139 23.5t-151 47.5t-103 24q-38 0 -51.5 -16t-15.5 -57h-301q0 86 29 154.5t76.5 108.5t102.5 61t111 21q59 0 141 -24t152.5 -47.5t103.5 -23.5q38 0 51 16t15 57h302q0 -86 -30 -154.5t-78 -108.5t-103.5 -61t-111.5 -21z" />
    </font>
</defs>
</svg>
